Watch UFC Fight Night 137 Early Prelims WEB DL

Watch UFC Fight Night 137 Early Prelims WEB DL

 

 

 

 


 

 

 

dx-tv.com

 

 

 

 

 

Complete name : UFC.Fight.Night.137.Early.Prelims.WEB-DL.mp4
Format : MPEG-4
Format profile : Base Media
File size : 1.25 GiB
Duration : 1 h 57 min
Overall bit rate : 1 526 kb/s
Writing application : Lavf58.18.102

Video
ID : 1
Format : AVC
Format/Info : Advanced Video Codec
Codec ID/Info : Advanced Video Coding
Duration : 1 h 57 min
Bit rate : 1 439 kb/s
Width : 960 pixels
Height : 540 pixels
Display aspect ratio : 16:9
Frame rate mode : Constant
Frame rate : 29.970
Original frame rate : 29.970
Color space : YUV
Chroma subsampling : 4:2:0
Bit depth : 8 bits
Scan type : Progressive
Bits/(Pixel*Frame) : 0.093
Stream size : 1.18 GiB (94%)

Audio
ID : 2
Format : AAC
Format/Info : Advanced Audio Codec
Format profile : LC
Codec ID : mp4a-40-2
Duration : 1 h 57 min
Bit rate mode : Constant
Bit rate : 77.6 kb/s
Channel(s) : 2 channels
Channel positions : Front: L R
Sampling rate : 44.1 kHz
Frame rate : 43.066 FPS
Compression mode : Lossy
Stream size : 65.3 MiB (5%)
Default : Yes
Alternate group : 1

 

 

 

 

Watch UFC Fight Night 137 Early Prelims WEB DL

 

 

 

 

Watch online

 

 

Waiting finish converting video

 

 

Server 1

 

 

 

 

 

 

 

 


aa
 

 

 

 

 

 

 

 

 

 

Server 2

 

 

 

 

 

 

 


 

 

 

 

 

Uploaded By Site DX-TV.com

 

 

 

open rar file to see this password

 

 

 

 

The password : DX-TV.com

 

 

 

 

Uploaded.net + rapidgator.net

 

 

 

 

 

 

 

http://shrt10.com/TMoJos

 

 

 

 

 

http://shrt10.com/001xBZD5

 

 

 

 

 

 

Watch UFC Fight Night 137 Early Prelims WEB DL