Watch UFC Fight Night 137 720p HDTV VERUM

Watch UFC Fight Night 137 720p HDTV VERUM

 

 

 

 


 

 

 

dx-tv.com

 

 

 

 

 

Complete name : UFC.Fight.Night.137.720p.HDTV.x264-VERUM.mkv
Format : Matroska
File size : 3.11 GiB
Duration : 2 h 32 min
Overall bit rate : 2 926 kb/s

Video
ID : 1
Format : AVC
Format/Info : Advanced Video Codec
Codec ID : V_MPEG4/ISO/AVC
Duration : 2 h 32 min
Bit rate : 2 612 kb/s
Width : 1 280 pixels
Height : 720 pixels
Display aspect ratio : 16:9
Frame rate mode : Constant
Frame rate : 50.000 FPS
Color space : YUV
Chroma subsampling : 4:2:0
Bit depth : 8 bits
Scan type : Progressive
Bits/(Pixel*Frame) : 0.057
Stream size : 2.78 GiB (89%)
Language : English
Default : Yes
Forced : No
Color range : Limited
Matrix coefficients : BT.709

Audio
ID : 2
Format version : Version 1
Format profile : Layer 2
Codec ID : A_MPEG/L2
Codec ID/Hint : MP2
Duration : 2 h 32 min
Bit rate mode : Constant
Bit rate : 256 kb/s
Channel(s) : 2 channels
Sampling rate : 48.0 kHz
Compression mode : Lossy
Stream size : 279 MiB (9%)
Language : English
Default : Yes
Forced : No

 

 

 

 

 

 

 

 

 

 

 

Watch UFC Fight Night 137 720p HDTV VERUM

 

 

 

 

Watch online

 

 

Waiting finish converting video

 

 

Server 1

 

 

 

 

 

 

 

 

 

 

 

 

 

 

 

 

 

 

 

 

Server 2

 

 

 

 

 


 

 

 

 

 

 

Uploaded By Site DX-TV.com

 

 

 

open rar file to see this password

 

 

 

 

The password : DX-TV.com

 

 

 

 

Uploaded.net + rapidgator.net

 

 

 

 

 

 

http://shrt10.com/lMIvEfXx

 

 

 

 

 

http://shrt10.com/DuMa

 

 

 

 

 

 

 

 

Watch UFC Fight Night 137 720p HDTV VERUM