Watch UFC Fight Night 136 Prelims WEB DL mp4

Watch UFC Fight Night 136 Prelims WEB DL mp4

 

 

 

 


 

 

dx-tv.com

 

 

 

 

 

 
Complete name : UFC.Fight.Night.136.Prelims.WEB-DL.mp4
Format : MPEG-4
Format profile : Base Media
File size : 2.05 GiB
Duration : 3 h 16 min
Overall bit rate : 1 493 kb/s
Writing application : Lavf58.17.103

Video
ID : 1
Format : AVC
Format/Info : Advanced Video Codec
Codec ID/Info : Advanced Video Coding
Duration : 3 h 16 min
Bit rate : 1 408 kb/s
Width : 960 pixels
Height : 540 pixels
Display aspect ratio : 16:9
Frame rate mode : Variable
Frame rate : 29.308 FPS
Minimum frame rate : 0.050 FPS
Maximum frame rate : 29.970 FPS
Original frame rate : 29.970
Color space : YUV
Chroma subsampling : 4:2:0
Bit depth : 8 bits
Scan type : Progressive
Bits/(Pixel*Frame) : 0.093
Stream size : 1.93 GiB (94%)

Audio
ID : 2
Format : AAC
Format/Info : Advanced Audio Codec
Format profile : LC
Codec ID : mp4a-40-2
Duration : 3 h 16 min
Bit rate mode : Constant
Bit rate : 75.8 kb/s
Channel(s) : 2 channels
Channel positions : Front: L R
Sampling rate : 44.1 kHz
Frame rate : 43.066 FPS (1024 SPF)
Compression mode : Lossy
Stream size : 106 MiB (5%)
Default : Yes

 

 

 

Watch UFC Fight Night 136 Prelims WEB DL mp4

 

 

 

 

Watch online

 

 

Waiting finish converting video

 

 

Server 1

 

 

 

 

 

 

 

 

 

 

 

 

 

 

 

 

Server 2

 

 

 

 

 

 

 


 

 

 

Uploaded By Site DX-TV.com

 

 

 

open rar file to see this password

 

 

 

 

The password : DX-TV.com

 

 

 

 

 

 

Uploaded.net + rapidgator.net

 

 

 

 

 

 

http://shrt10.com/Q2nsotL

 

 

 

http://shrt10.com/N0VU

 

 

 

 

 

Watch UFC Fight Night 136 Prelims WEB DL mp4