Watch UFC Fight Night 122 Weigh In 720p HDTV Ebi

Watch UFC Fight Night 122 Weigh In 720p HDTV Ebi

 

 

 

 

 

 

wwe

 

 

 

 

 

 

Complete name : UFC.Fight.Night.122.Weigh.In.720p.HDTV.x264-Ebi.mp4
Format : MPEG-4
Format profile : Base Media / Version 2
Codec ID : mp42
File size : 912 MiB
Duration : 27mn 5s
Overall bit rate : 4 704 Kbps
Encoded date : UTC 2017-11-24 12:30:30
Tagged date : UTC 2017-11-24 12:30:30
Writing application : HandBrake 1.0.7 2017040900

Video
ID : 1
Format : AVC
Format/Info : Advanced Video Codec
Format settings, GOP : M=4, N=16
Codec ID : avc1
Codec ID/Info : Advanced Video Coding
Duration : 27mn 5s
Bit rate mode : Variable
Bit rate : 4 500 Kbps
Width : 1 280 pixels
Height : 720 pixels
Display aspect ratio : 16:9
Frame rate mode : Constant
Frame rate : 29.970 fps
Color space : YUV
Chroma subsampling : 4:2:0
Bit depth : 8 bits
Scan type : Progressive
Bits/(Pixel*Frame) : 0.163
Stream size : 873 MiB (96%)
Writing library : x264 core 148 r2708 86b7198

Audio
ID : 2
Format : AAC
Format/Info : Advanced Audio Codec
Format profile : LC
Codec ID : 40
Duration : 27mn 5s
Bit rate mode : Variable
Bit rate : 192 Kbps
Channel(s) : 2 channels
Channel positions : Front: L R
Sampling rate : 48.0 KHz
Compression mode : Lossy
Stream size : 37.2 MiB (4%)
Title : Stereo
Encoded date : UTC 2017-11-24 12:30:30
Tagged date : UTC 2017-11-24 12:30:30

 

 

 

 

 

 

 

 

 

 

Watch UFC Fight Night 122 Weigh In 720p HDTV Ebi

 

 

 

 

Watch online

 

 

Waiting finish converting video

 

 

Server 1

 

 

 

 

 

 

 

 

 

 

 

 

 

 

 

 

 

 

 

 

Server 2

 

 

 

 

 

 

 

 


 

 

 

 

 

 

Srver 3

 

 

 

 

 

 

 

 

 


 

 

 

 

 

 

 

Uploaded By Site DX-TV.com

 

 

 

open rar file to see this password

 

 

 

 

The password is : DX-TV.com

 

 

 

 

720p

 

 

 

 

rapidgator.net

 

 

 

 

 

 

 

http://shrt10.com/9T0T

 

 

 

 

 

 

 

 

Watch UFC Fight Night 122 Weigh In 720p HDTV Ebi