Watch UFC 257 Online Prelims 720p /1080p DX-TV

Watch UFC 257 Online Prelims 720p /1080p DX-TV

Watch UFC 257 Online

 Watch UFC 257 Online

 

Download Links with premium High Speed   

 

 

dropapk.to

http://shrt10.com/1dHsxqP
http://shrt10.com/cAb3LM

http://shrt10.com/pxtK4TBs

 

nitroflare.com

http://shrt10.com/4AObmsZB2
http://shrt10.com/RKmXvT
http://shrt10.com/iAZVLK

 

 

rapidgator.net

http://shrt10.com/6PzIIXZS
http://shrt10.com/M7XSo
http://shrt10.com/kLl8s

 

 

uploaded.net

http://shrt10.com/u6QXNDK
http://shrt10.com/e23LG9wNA

 

 

uploadgig.com

http://shrt10.com/toVJSVK
http://shrt10.com/Q9cPcLl
http://shrt10.com/9UBMEE

 

Watch UFC 257 online

 

Server 1

 

 

 

 

Watch UFC 257

 

 

 

 

Server-2

 

 

 

 

watch now

 

 

Uploaded By Site DX-TV.com

 

 

Complete name : UFC.257.Prelims.1080p.WEB.mp4
Format : MPEG-4
Format profile : Base Media
Codec ID : isom
File size : 6.43 GiB
Duration : 2 h 34 min
Overall bit rate mode : Variable
Overall bit rate : 5 947 kb/s
Writing application : Lavf58.12.100

Watch UFC 257

Video
ID : 2
Format : AVC
Format/Info : Advanced Video
Duration : 2 h 34 min
Bit rate mode : Variable
Bit rate : 5 805 kb/s
Maximum bit rate : 8 864 kb/s
Width : 1 920 pixels
Height : 1 080 pixels
Display aspect ratio : 16:9
Frame rate mode : Variable
Frame rate : 30.000 FPS
Minimum frame rate : 29.412 FPS
Maximum frame rate : 30.303 FPS
Color space : YUV
Chroma subsampling : 4:2:0
Bit depth : 8 bits
Scan type : Progressive
Bits/(Pixel*Frame) : 0.093
Stream size : 6.28 GiB (98%)
Codec configuration box : avc

Watch UFC 257

Audio
ID : 3
Format : AAC LC
Format/Info : Advanced Audio
Codec ID : mp4a-40-2
Duration : 2 h 34 min
Bit rate mode : Variable
Bit rate : 132 kb/s
Maximum bit rate : 140 kb/s
Channel(s) : 2 channels
Channel layout : L R
Sampling rate : 48.0 kHz
Frame rate : 46.875 FPS (1024 SPF)
Compression mode : Lossy
Stream size : 146 MiB (2%)
Default : Yes
Alternate group : 1

Complete name : UFC.257.Prelims.WEB.mp4
Format : MPEG-4
Format profile : Base Media
Codec ID : isom
File size : 1.28 GiB
Duration : 2 h 35 min
Overall bit rate mode : Variable
Overall bit rate : 1 184 kb/s
Writing application : Lavf58.12.100

Watch UFC 257

Video
ID : 2
Format : AVC
Duration : 2 h 35 min
Bit rate mode : Variable
Bit rate : 1 044 kb/s
Maximum bit rate : 1 069 kb/s
Width : 896 pixels
Height : 504 pixels
Display aspect ratio : 16:9
Frame rate mode : Variable
Frame rate : 30.000 FPS
Minimum frame rate : 29.412 FPS
Maximum frame rate : 30.303 FPS
Standard : NTSC
Color space : YUV
Chroma subsampling : 4:2:0
Bit depth : 8 bits
Scan type : Progressive
Bits/(Pixel*Frame) : 0.077
Stream size : 1.13 GiB (88%)
Color range : Limited
Color primaries : BT.709
Transfer characteristics : BT.709
Matrix coefficients : BT.709
Codec configuration box : avc

Watch UFC 257

Audio
ID : 3
Format : AAC LC
Format/Info : Advanced Audio
Codec ID : mp4a-40-2
Duration : 2 h 35 min
Bit rate mode : Variable
Bit rate : 132 kb/s
Maximum bit rate : 140 kb/s
Channel(s) : 2 channels
Channel layout : L R
Sampling rate : 48.0 kHz
Frame rate : 46.875 FPS (1024 SPF)
Compression mode : Lossy
Stream size : 146 MiB (11%)
Default : Yes
Alternate group : 1

General
Complete name : UFC.257.Prelims.720p.WEB DX-TV.mp4
Format : MPEG-4
Format profile : Base Media
Codec ID : isom
File size : 3.37 GiB
Duration : 2 h 34 min
Overall bit rate mode : Variable
Overall bit rate : 3 129 kb/s
Writing application : Lavf58.12.100

Watch UFC 257

Video
ID : 2
Format : AVC
Duration : 2 h 34 min
Bit rate mode : Variable
Bit rate : 2 989 kb/s
Maximum bit rate : 3 159 kb/s
Width : 1 280 pixels
Height : 720 pixels
Display aspect ratio : 16:9
Frame rate mode : Variable
Frame rate : 30.000 FPS
Minimum frame rate : 29.412 FPS
Maximum frame rate : 30.303 FPS
Standard : NTSC
Color space : YUV
Chroma subsampling : 4:2:0
Bit depth : 8 bits
Scan type : Progressive
Bits/(Pixel*Frame) : 0.108
Stream size : 3.22 GiB (96%)
Color range : Limited
Color primaries : BT.709
Transfer characteristics : BT.709
Matrix coefficients : BT.709
Codec configuration box : avcC

Audio
ID : 3
Format : AAC LC
Format/Info : Advanced Audio
Codec ID : mp4a-40-2
Duration : 2 h 34 min
Bit rate mode : Constant
Bit rate : 132 kb/s
Channel(s) : 2 channels
Channel layout : L R
Sampling rate : 48.0 kHz
Frame rate : 46.875 FPS (1024 SPF)
Compression mode : Lossy
Stream size : 145 MiB (4%)
Default : Yes
Alternate group : 1

 

 

https://dx-tv.com/

You May Also Like

Leave a Reply

Your email address will not be published. Required fields are marked *

This site uses Akismet to reduce spam. Learn how your comment data is processed.