Watch UFC 257 720p Erly Prelims DX-TV

Watch UFC 257 720p Erly Prelims UFC Fight Pass DX-TV

Watch UFC 257 720p

 Watch UFC 257 720p

 

Download Links with premium High Speed   

 

 

dropapk.to

http://shrt10.com/akqXy

 

 

nitroflare.com

http://shrt10.com/WnSEk

 

 

rapidgator.net

http://shrt10.com/v4iWV

 

 

uploaded.net

http://shrt10.com/wlKFC

 

 

uploadgig.com

http://shrt10.com/Rywfnm

 

Watch UFC 257 online

 

Server 1

 

 

 

 

Watch UFC 257

 

 

 

 

Server-2

 

 

 

 

watch now

 

 

Uploaded By Site DX-TV.com

 

 

Complete name : UFC 257 Erly Prelims 720p WEB H264 DX-TV.mp4
Format : MPEG-4
Format profile : Base Media
Codec ID : isom
File size : 1.62 GiB
Duration : 1 h 12 min
Overall bit rate mode : Constant
Overall bit rate : 3 198 kb/s

Watch UFC 257

Video
ID : 1
Format : AVC
Duration : 1 h 12 min
Bit rate mode : Constant
Bit rate : 3 000 kb/s
Width : 1 280 pixels
Height : 720 pixels
Display aspect ratio : 16:9
Frame rate mode : Constant
Frame rate : 30.000 FPS
Standard : Component
Color space : YUV
Chroma subsampling : 4:2:0
Bit depth : 8 bits
Scan type : Progressive
Bits/(Pixel*Frame) : 0.109
Stream size : 1.52 GiB (94%)
Color range : Limited
Codec configuration box : avcC

Watch UFC 257

Audio
ID : 2
Format : AAC LC
Format/Info : Advanced Audio
Codec ID : mp4a-40-2
Duration : 1 h 12 min
Bit rate mode : Constant
Bit rate : 192 kb/s
Channel(s) : 2 channels
Channel layout : L R
Sampling rate : 48.0 kHz
Frame rate : 46.875 FPS
Compression mode : Lossy
Stream size : 98.0 MiB (6%)
Default : Yes
Alternate group : 1

Watch UFC 257

Audio
ID : 2
Format : AAC LC
Format/Info : Advanced Audio
Codec ID : mp4a-40-2
Duration : 1 h 12 min
Bit rate mode : Constant
Bit rate : 192 kb/s
Channel(s) : 2 channels
Channel layout : L R
Sampling rate : 48.0 kHz
Frame rate : 46.875 FPS (1024 SPF)
Compression mode : Lossy
Stream size : 98.0 MiB (6%)
Default : Yes
Alternate group : 1

Watch UFC 257

Audio
ID : 2
Format : AAC LC
Format/Info : Advanced Audio
Codec ID : mp4a-40-2
Duration : 1 h 12 min
Bit rate mode : Constant
Bit rate : 192 kb/s
Channel(s) : 2 channels
Channel layout : L R
Sampling rate : 48.0 kHz
Frame rate : 46.875 FPS (1024 SPF)
Compression mode : Lossy
Stream size : 98.0 MiB (6%)
Default : Yes
Alternate group : 1

 UFC 257

 

https://dx-tv.com/

You May Also Like

Leave a Reply

Your email address will not be published. Required fields are marked *

This site uses Akismet to reduce spam. Learn how your comment data is processed.