Watch UFC 257 1080p Prelims Full Show Online DX-TV

Watch UFC 257 1080p Prelims Full Show Online DX-TV

Watch UFC 257 1080p

 Watch UFC 257 1080p

 

Download Links with premium High Speed   

 

 

dropapk.to

http://shrt10.com/oCZbIpUP

 

 

nitroflare.com

http://shrt10.com/Ow7U5

 

 

rapidgator.net

http://shrt10.com/icyBL0zBR

 

 

uploaded.net

 

 

 

uploadgig.com

http://shrt10.com/FrPsojL

 

Watch UFC 257 1080p online

 

Server 1

 

 

 

 

Watch UFC 257 1080p

 

 

 

 

Server-2

 

 

 

 

watch now

 

 

Uploaded By Site DX-TV.com

 

 

Complete name : UFC 257 Prelims 1080p WEB H264 DX-TV.mp4
Format : MPEG-4
Format profile : Base Media
Codec ID : isom
File size : 4.89 GiB
Duration : 1 h 57 min
Overall bit rate mode : Variable
Overall bit rate : 5 985 kb/s

Watch UFC 257

Video
ID : 1
Format : AVC
Format/Info : Advanced Video
Duration : 1 h 57 min
Bit rate mode : Variable
Bit rate : 5 843 kb/s
Maximum bit rate : 8 864 kb/s
Width : 1 920 pixels
Height : 1 080 pixels
Display aspect ratio : 16:9
Frame rate mode : Variable
Frame rate : 30.000 FPS
Color space : YUV
Chroma subsampling : 4:2:0
Bit depth : 8 bits
Scan type : Progressive
Bits/(Pixel*Frame) : 0.094
Stream size : 4.78 GiB
Codec configuration box : avc

Watch UFC 257

Audio
ID : 2
Format : AAC LC
Format/Info : Advanced Audio
Codec ID : mp4a-40-2
Duration : 1 h 56 min
Bit rate mode : Constant
Bit rate : 132 kb/s
Channel(s) : 2 channels
Channel layout : L R
Sampling rate : 48.0 kHz
Frame rate : 46.875 FPS
Compression mode : Lossy
Stream size : 110 MiB (2%)
Default : Yes
Alternate group : 1

Watch UFC 257

Text
ID : 1-CC1
Format : EIA-608
Muxing mode : SCTE 128 / DTVCC Transport
Muxing mode, more info : Muxed in Video #1
Duration : 1 h 57 min
Bit rate mode : Constant
Stream size : 0.00 Byte (0%)
CaptionServiceName : CC1

Audio
ID : 2
Format : AAC LC
Format/Info : Advanced Audio
Codec ID : mp4a-40-2
Duration : 1 h 56 min
Bit rate mode : Constant
Bit rate : 132 kb/s
Channel(s) : 2 channels
Channel layout : L R
Sampling rate : 48.0 kHz
Frame rate : 46.875 FPS
Compression mode : Lossy
Stream size : 110 MiB (2%)
Default : Yes
Alternate group : 1

Watch UFC 257

Text
ID : 1-CC1
Format : EIA-608
Muxing mode : SCTE 128 / DTVCC Transport
Muxing mode, more info : Muxed in Video #1
Duration : 1 h 57 min
Bit rate mode : Constant
Stream size : 0.00 Byte (0%)
CaptionServiceName : CC1

Watch UFC 257

 

https://dx-tv.com/

You May Also Like

Leave a Reply

Your email address will not be published. Required fields are marked *

This site uses Akismet to reduce spam. Learn how your comment data is processed.