Watch UFC 256 Prelims Free Online DX-TV

Watch UFC 256 Prelims Free Online 720p /1080p DX-TV

Watch UFC 256 Prelims Free Online

 UFC 256 Free Livestream

 

Download Links with premium High Speed   

 

480p p/ 720p /1080p

 

dropapk.to

http://shrt10.com/S6Oyq6qHk
http://shrt10.com/UET1obQVl
http://shrt10.com/2iQsp

 

 

nitroflare.com

http://shrt10.com/kmdiGJKK
http://shrt10.com/nu2jWg6
http://shrt10.com/hJBA5MP

 

 

rapidgator.net

http://shrt10.com/mei1u
http://shrt10.com/95nQG3evK
http://shrt10.com/mXfVyZ4c1

 

 

uploaded.net

http://shrt10.com/0Oif6CH
http://shrt10.com/ss0Qt6Vq

 

 

uploadgig.com

http://shrt10.com/fVtLV
http://shrt10.com/ovvHDDQp
http://shrt10.com/AMMhWMk

 

Watch online

 

Server 1

 

 

 

 

Watch UFC 256 Prelims Free Online

 

 

 

 

Server-2

 

 

 

 

watch now

 

 

 

 

Uploaded By Site DX-TV.com

 

 

 

[su_expand more_text=”Show More Info” less_text=”Close all Info” height=”50″ text_color=”#000000″ link_color=”#e25f8b” link_style=”button” more_icon=”icon: arrow-down” less_icon=”icon: arrow-up”]

Complete name : UFC.256.Prelims.720p.WEB .mp4
Format : MPEG-4
File size : 3.14 GiB
Duration : 2 h 20 min
Overall bit rate mode : Variable
Overall bit rate : 3 193 kb/s
Writing application : Lavf58.12.100

 UFC 256 Prelims Free Online

Video
ID : 2
Format : AVC
Duration : 2 h 20 min
Bit rate mode : Variable
Bit rate : 3 053 kb/s
Maximum bit rate : 3 159 kb/s
Width : 1 280 pixels
Height : 720 pixels
Display aspect ratio : 16:9
Frame rate mode : Variable
Frame rate : 30.000 FPS
Standard : NTSC
Color space : YUV
Chroma subsampling : 4:2:0
Bit depth : 8 bits
Scan type : Progressive
Bits/(Pixel*Frame) : 0.110
Stream size : 3.00 GiB (96%)
Color range : Limited
Color primaries : BT.709
Transfer characteristics : BT.709
Matrix coefficients : BT.709
Codec configuration box : avc

Audio
ID : 3
Format : AAC LC
Format/Info : Advanced Audio
Codec ID : mp4a-40-2
Duration : 2 h 20 min
Bit rate mode : Variable
Bit rate : 132 kb/s
Maximum bit rate : 150 kb/s
Channel(s) : 2 channels
Channel layout : L R
Sampling rate : 48.0 kHz
Frame rate : 46.875 FPS (1024 SPF)
Compression mode : Lossy
Stream size : 132 MiB (4%)
Default : Yes
Alternate group : 1

Watch UFC 256 Prelims Free Online

Complete name : UFC.256.Prelims.1080p.WEB-.mp4
Format : MPEG-4
File size : 5.73 GiB
Duration : 2 h 22 min
Overall bit rate mode : Variable
Overall bit rate : 5 780 kb/s
Writing application : Lavf58.12.100

Video
ID : 2
Format : AVC
Duration : 2 h 22 min
Bit rate mode : Variable
Bit rate : 5 639 kb/s
Maximum bit rate : 8 864 kb/s
Width : 1 920 pixels
Height : 1 080 pixels
Display aspect ratio : 16:9
Frame rate mode : Variable
Frame rate : 30.000 FPS
Color space : YUV
Chroma subsampling : 4:2:0
Bit depth : 8 bits
Scan type : Progressive
Bits/(Pixel*Frame) : 0.091
Stream size : 5.59 GiB (98%)
Codec configuration box : avc

Watch UFC 256 Prelims Free Online

Audio
ID : 3
Format : AAC LC
Codec ID : mp4a-40-2
Duration : 2 h 22 min
Bit rate mode : Constant
Bit rate : 132 kb/s
Channel(s) : 2 channels
Channel layout : L R
Sampling rate : 48.0 kHz
Frame rate : 46.875 FPS (1024 SPF)
Compression mode : Lossy
Stream size : 133 MiB (2%)
Default : Yes
Alternate group : 1

 

[/su_expand]

 

https://dx-tv.com/

Leave a Reply

Your email address will not be published. Required fields are marked *

This site uses Akismet to reduce spam. Learn how your comment data is processed.