Watch UFC 256 PPV Figueiredo vs Moreno 720p DX-TV

Watch UFC 256 PPV Figueiredo vs Moreno 720p HDTV Star DX-TV

Watch UFC 256 PPV

 

 Watch UFC 256 PPV

 

Download Links with premium High Speed   

 

 

dropapk.to

http://shrt10.com/e5zk6GSzG

 

 

nitroflare.com

http://shrt10.com/WhBUMu

 

 

rapidgator.net

http://shrt10.com/gFPyNcrBt

 

 

uploadgig.com

http://shrt10.com/hU0Zc2

 

Watch online

 

Server 1

 

 

 

 

Watch UFC 256 PPV

 

 

 

 

Server-2

 

 

 

 

watch now

 

 

 

 

Uploaded By Site DX-TV.com

 

 

 

[su_expand more_text=”Show More Info” less_text=”Close all Info” height=”50″ text_color=”#000000″ link_color=”#e25f8b” link_style=”button” more_icon=”icon: arrow-down” less_icon=”icon: arrow-up”]

Complete name : UFC.256.PPV.Figueiredo.vs.Moreno.720p.HDTV.x264-Star.mkv
Format : Matroska
Format version : Version 4
File size : 6.14 GiB
Duration : 3 h 33 min
Overall bit rate : 4 124 kb/s

Watch UFC 256 PPV

Video
ID : 1
Format : AVC
Duration : 3 h 33 min
Bit rate : 4 000 kb/s
Width : 1 280 pixels
Height : 720 pixels
Display aspect ratio : 16:9
Frame rate mode : Constant
Frame rate : 29.970 FPS
Color space : YUV
Chroma subsampling : 4:2:0
Bit depth : 8 bits
Scan type : Progressive
Bits/(Pixel*Frame) : 0.145
Stream size : 5.83 GiB (95%)
Color range : Limited
Color primaries : BT.709
Transfer characteristics : BT.709
Matrix coefficients : BT.709

 UFC 256 PPV

Audio
ID : 2
Format : AC-3
Format/Info : Audio Coding 3
Commercial name : Dolby Digital
Codec ID : A_AC3
Duration : 3 h 33 min
Bit rate mode : Constant
Bit rate : 128 kb/s
Channel(s) : 2 channels
Channel layout : L R
Sampling rate : 48.0 kHz
Compression mode : Lossy
Delay relative to video : -5 ms
Stream size : 195 MiB (3%)
Title : Stereo
Service kind : Complete Main
Default : Yes
Forced : No

Compression mode : Lossy
Delay relative to video : -5 ms
Stream size : 195 MiB (3%)
Title : Stereo
Service kind : Complete Main

[/su_expand]

 

https://dx-tv.com/

Leave a Reply

Your email address will not be published. Required fields are marked *

This site uses Akismet to reduce spam. Learn how your comment data is processed.