Watch UFC 255 Online Free PPV DX-TV

Watch UFC 255 Online Free PPV Full Show DX-TV

UFC 255 Online

 

 UFC 255 Online

 

[su_expand more_text=”Show More Info” less_text=”Close all Info” height=”30″ text_color=”#000000″ link_color=”#e25f8b” link_style=”button” more_icon=”icon: arrow-down” less_icon=”icon: arrow-up”]

 

Complete name : UFC.255.Figueiredo.vs.Perez.PPV.HDTV.x264-Star.mp4
Format : MPEG-4
Format profile : Base Media
Codec ID : mp42
File size : 2.07 GiB
Duration : 3 h 21 min
Overall bit rate : 1 468 kb/s

UFC 255 Online

Video
ID : 1
Format : AVC
Duration : 3 h 21 min
Bit rate : 1 300 kb/s
Width : 720 pixels
Height : 480 pixels
Display aspect ratio : 16:9
Original display aspect rat : 16:9
Frame rate mode : Constant
Frame rate : 29.970 FPS
Standard : NTSC
Color space : YUV
Chroma subsampling : 4:2:0
Bit depth : 8 bits
Scan type : Progressive
Bits/(Pixel*Frame) : 0.126
Stream size : 1.83 GiB
Color range : Limited
Color primaries : BT.601
Transfer characteristics : BT.709
Matrix coefficients : BT.601
Codec configuration box : avc

UFC 255 Online

Audio
ID : 2
Format : AAC LC
Format/Info : Advanced Audio
Codec ID : mp4a-40-2
Duration : 3 h 21 min
Bit rate mode : Constant
Bit rate : 160 kb/s
Channel(s) : 2 channels
Channel layout : L R
Sampling rate : 48.0 kHz
Frame rate : 46.875 FPS (1024 SPF)
Compression mode : Lossy
Stream size : 232 MiB (11%)
Title : Stereo
Default : Yes

Watch  UFC 255 Online

UFC 255: Date and start time

The main event is scheduled to take place in the early hours of Sunday,

November 22 for UK fans and will be held behind closed doors.

It is being held at the UFC APEX Center in Las Vegas.

UK fans can expect the headline fight between Figueiredo and Perez to get under way at around 5am.

UFC 255 Online

UFC 255: TV and live stream

will be shown on BT Sport and will not be a pay-per-view event in the UK.

A preview show and the prelims will start on BT Sport 1 from midnight on Sunday before their main show begins at 3am.

It will be live streamed on BT Sport’s website and app for subscribers.

The early prelims will be shown on UFC’s Fight Pass and in the US, all prelim bouts will be simulcast on ESPN,

ESPN Deportes and ESPN+ in English and Spanish.

UFC 255 Online

How can I watch UFC 255 for FREE?

EE mobile customers can get a FREE three-month trial of BT Sport by texting SPORT to 150.

You can then cancel the trial at any time.

[/su_expand]

 

 

Watch online

 

 

Server 1

 

 

 

 

 

 

 

 

Server-2

 

 

 

 

 

 

 

 

Uploaded By Site DX-TV.com

 

UFC 255 Online

Download Links with premium High Speed   

 

 

 

 

dropapk.to

 

 

 

nitroflare.com

 

 

 

rapidgator.net

 

 

 

uploaded.net

 

 

 

uploadgig.com

 

 

 

 

 

dx-tv.com

 

urlfree.net

You May Also Like

Leave a Reply

Your email address will not be published. Required fields are marked *

This site uses Akismet to reduce spam. Learn how your comment data is processed.