Watch UFC 255 1080p Full Show Prelims DX-TV

Watch UFC 255 1080p Full Show Prelims DX-TV

UFC 255 1080p

 

 UFC 255 Free Online

 

UFC 255 1080p

 

 

[su_expand more_text=”Show More Info” less_text=”Close all Info” height=”30″ text_color=”#000000″ link_color=”#e25f8b” link_style=”button” more_icon=”icon: arrow-down” less_icon=”icon: arrow-up”]

 

Complete name : UFC.255.Prelims.1080p.mp4
Format : MPEG-4
Format profile : Base Media
Codec ID : isom
File size : 5.79 GiB
Duration : 2 h 20 min
Overall bit rate mode : Variable
Overall bit rate : 5 900 kb/s
Writing application : Lavf58.12.100

UFC 255 1080p

Video
ID : 2
Format : AVC
Duration : 2 h 20 min
Bit rate mode : Variable
Bit rate : 5 758 kb/s
Maximum bit rate : 8 864 kb/s
Width : 1 920 pixels
Height : 1 080 pixels
Display aspect ratio : 16:9
Frame rate mode : Variable
Frame rate : 30.000 FPS
Minimum frame rate : 29.412 FPS
Maximum frame rate : 30.303 FPS
Color space : YUV
Chroma subsampling : 4:2:0
Bit depth : 8 bits
Scan type : Progressive
Bits/(Pixel*Frame) : 0.093
Stream size : 5.65 GiB (98%)
Codec configuration box : avc

UFC 255 1080p

Audio
ID : 3
Format : AAC LC
Format/Info : Advanced Audio
Codec ID : mp4a-40-2
Duration : 2 h 20 min
Bit rate mode : Constant
Bit rate : 132 kb/s
Channel(s) : 2 channels
Channel layout : L R
Sampling rate : 48.0 kHz
Frame rate : 46.875 FPS (1024 SPF)
Compression mode : Lossy
Stream size : 132 MiB (2%)
Default : Yes
Alternate group : 1

UFC 255 1080p

 

Round 2 – Stoltzfus with a few punches from range. Daukaus slips a few and returns fire.

Good exchanges, but Daukaus lands low with a kick. We take a very quick break.

Daukaus forward on the restart. They trade punches again before Stoltzfus clinches and moves to the fence. Daukaus turns off and takes the outside.

Daukaus backs away and lands a few clean punches before he moves inside once again. Stoltzfus battles well there and spins off to the outside.

Short knees traded. Daukaus spins off to the outside and looks for the trip, but it’s not there. They trade punches, and Daukaus tries to change levels.

Stoltzfus stuffs it and briefly controls the neck, but Daukaus pulls it away. Continued battle in the clinch.

He wants a takedown, but Stoltzfus counters with a whizzer, and they move back to the feet in a a stalemate. Punches traded a bit on the feet to close.

MMA Junkie again leans Daukaus, 10-9.

 

[/su_expand]

 

 

Watch online

 

 

Server 1

 

 

 

 

 

 

 

 

Server-2

 

 

 

 

 

 

 

 

Uploaded By Site DX-TV.com

 

Watch UFC 255 1080p

 

Download Links with premium High Speed   

 

 

nitroflare.com

 

 

 

rapidgator.net

 

 

 

 

 

 

dx-tv.com

 

urlfree.net

You May Also Like

Leave a Reply

Your email address will not be published. Required fields are marked *

This site uses Akismet to reduce spam. Learn how your comment data is processed.