Watch UFC 254 Early Prelims 1080p Free Online

UFC 254 Early Prelims 1080p Free Online DX-TV

 

Watch UFC 254

 

 Watch UFC 254
 


 

 

Watch UFC 254 Early Prelims 1080p Free Online

 

Early preliminary card (ESPN 2 / ESPN+ / UFC Fight Pass)

Women’s Flyweight Liana Jojua vs. Miranda Maverick

Catchweight (159.5 lb) Joel Álvarez vs. Alexander Yakovlev

Watch UFC 254

UFC 254 event in Finland, France, Germany, Iceland, Republic of Ireland, and India

For Finland the main card gets telecast on Viaplay and the prelims air on UFC Fight Pass.

The early prelims will be stream on UFC Fight Pass and the main card will air at 9 pm CEST.

The prelims will kick off at 7 pm CEST and the early prelims will start at 5:15 pm CEST.

For France, the main card, prelims, and early prelims are all telecast on UFC Fight Pass.

The main card airs at 8 pm CEST. The prelims kick off at 6 pm CEST and the early prelims start at 4:15 pm CEST.

For Germany, the main card telecasts on DAZN and UFC PPV on UFC Fight Pass.

Also, the prelims and early prelims will be aired on UFC Fight Pass The main card airs at 8 pm CEST.

The prelims kick off at 6 pm CEST and the early prelims start at 4:15 pm CEST.

Watch UFC 254

The prelims kick off at 4 pm GMT and the early prelims start at 2:15 pm GMT.

For the Republic of Ireland, the main card telecasts on BT Sport Box Office.

The prelims kick off at 5 pm BST and the early prelims start at 3:15 pm BST.

 UFC 254

Complete name : UFC.254.Early.Prelims.1080p.WEB.mp4
Format : MPEG-4
Format profile : Base Media
Codec ID : isom
File size : 3.56 GiB
Duration : 1 h 28 min
Overall bit rate mode : Variable
Overall bit rate : 5 775 kb/s
Writing application : Lavf58.12.100

Watch UFC 254

Video
ID : 2
Format : AVC
Duration : 1 h 28 min
Bit rate mode : Variable
Bit rate : 5 635 kb/s
Maximum bit rate : 8 864 kb/s
Width : 1 920 pixels
Height : 1 080 pixels
Display aspect ratio : 16:9
Frame rate mode : Variable
Frame rate : 30.000 FPS
Color space : YUV
Chroma sampling : 4:2:0
Bit depth : 8 bits
Scan type : Progressive
Bits/(Pixel*Frame) : 0.091
Stream size : 3.48 GiB
Codec configuration box : avcC

Watch UFC 254

Audio
ID : 3
Format : AAC LC
Format/Info : Advanced
Codec ID : mp4a-40-2
Duration : 1 h 28 min
Bit rate mode : Constant
Bit rate : 132 kb/s
Channel(s) : 2 channels
Channel layout : L R
Sampling rate : 48.0 kHz
Frame rate : 46.875 FPS (1024 SPF)
Compression mode : Lossy
Stream size : 83.1 MiB (2%)
Default : Yes
Alternate group : 1

 

 

 

Watch UFC 254 Early Prelims 1080p Free Online

 

 

 

 

Watch online

 

 

 

 

 

Server 1

 

 

 

 

Watch UFC 254

 

 

 

Server-3

 

 

 

watch now

 

 

 

 

Uploaded By Site DX-TV.com

 

 

Download Links with premium High Speed   

 

 

 

 

dropapk.to

 

 

 

nitroflare.com

 

 

 

rapidgator.net

 

 

 

uploaded.net

 

 

 

uploadgig.com

 

 

 

 

 

dx-tv.com

 

urlfree.net

Leave a Reply

Your email address will not be published. Required fields are marked *

This site uses Akismet to reduce spam. Learn how your comment data is processed.