Watch UFC 254 720p Prelims Full Show Free Online

UFC 254 720p Prelims Full Show Free Online DX-TV

Watch UFC 254

 

 Watch UFC 254
 


 

 

Watch UFC 254 720p Prelims Full Show Free Online

 

Complete name : UFC.254.Prelims.720p.WEB.mp4
Format : MPEG-4
Format profile : Base Media
Codec ID : isom
File size : 5.38 GiB
Duration : 2 h 50 min
Overall bit rate mode : Variable
Overall bit rate : 4 527 kb/s
Writing application : Lavf58.12.100

Watch UFC 254

Video
ID : 2
Format : AVC
Duration : 2 h 50 min
Bit rate mode : Variable
Bit rate : 4 385 kb/s
Maximum bit rate : 4 809 kb/s
Width : 1 280 pixels
Height : 720 pixels
Display aspect ratio : 16:9
Frame rate mode : Variable
Frame rate : 30.000 FPS
Standard : NTSC
Color space : YUV
Chroma subsampling : 4:2:0
Bit depth : 8 bits
Scan type : Progressive
Bits/(Pixel*Frame) : 0.159
Stream size : 5.21 GiB (97%)
Color range : Limited
Color primaries : BT.709
Transfer characteristics : BT.709
Matrix coefficients : BT.709
Codec configuration box : avcC

Watch UFC 254

Audio
ID : 3
Format : AAC LC
Format/Info : Advanced
Codec ID : mp4a-40-2
Duration : 2 h 49 min
Bit rate mode : Variable
Bit rate : 132 kb/s
Maximum bit rate : 135 kb/s
Channel(s) : 2 channels
Channel layout : L R
Sampling rate : 48.0 kHz
Frame rate : 46.875 FPS
Compression mode : Lossy
Stream size : 160 MiB (3%)
Default : Yes
Alternate group : 1

Watch UFC 254

UFC 254 event in Brazil, Australia, Africa, Asia & Denmark

Also, Combate.com SporTV 3 Facebook ,and Combat will stream the early prelims plus the pre-show.

The main card will air at 3 pm BRT, The prelims kick off at 1 pm BRT.

  and the early prelims plus pre-show start at 11:15 am BRT.

For Australia, the main card will be telecast on  Main Event, Fetch TV,

and UFC PPV on UFC Fight Pass, and the prelims on ESPN and UFC Fight Pass.

Also UFC Fight Pass will stream the early prelims. The main card airs at 5 am AEDT.

The prelims kick off at 3 am AEDT and the early prelims start at 1:15 am AEDT.

Watch UFC 254

and UFC PPV will be shown on UFC Fight Pass. will stream the early prelims.

The main card airs at 7 pm WAT or 8 pm SAST.

The prelims kick off at 5 pm WAT or 6 pm SAST and the early prelims start at 3:15 pm WAT or 4:15 pm SAST.

For Asia the main card and prelims will be telecast on Fox Sports and Fox+ (Hong Kong and Singapore).

The main card will air at 2 am HKT and the prelims start at 12 am HKT.

For Denmark the UFC 254 main card will be telecast on Viaplay and the prelims will air on UFC Fight Pass.

The main card airs at 8 pm CEST The prelims kick off at 6 pm CEST and the early prelims start at 4:15 pm CEST.

 

Watch UFC 254 720p Prelims Full Show Free Online

 

Watch online

 

Server 1

 

 

 

 

Watch UFC 254

 

 

 

Server-3

 

 

 

watch now

 

 

 

 

Uploaded By Site DX-TV.com

 

 

 

 

Download Free Links with normal and high Speed [ more 14 hosts ]  

 

[su_expand more_text=”Show Hosts Info” less_text=”Close all Info” height=”30″ text_color=”#000000″ link_color=”#e25f8b” link_style=”button” more_icon=”icon: arrow-down” less_icon=”icon: arrow-up”]

 

 

hexupload.net – clicknupload.co – www.multiup.org – uptobox.com – anonfiles.com – userscloud.com – 

 

[/su_expand]

 

 

 

http://shrt10.com/dSilkO
http://shrt10.com/lqFlMkY6M
http://shrt10.com/IFhGN2o
http://shrt10.com/0ZkmVx9A

 

 

 

Download Links with premium High Speed   

 

 

 

dropapk.to

 

 

 

nitroflare.com

 

 

 

rapidgator.net

 

 

 

uploadgig.com

 

 

 

 

 

dx-tv.com

 

urlfree.net

Leave a Reply

Your email address will not be published. Required fields are marked *

This site uses Akismet to reduce spam. Learn how your comment data is processed.