Watch UFC 253 Free Full Show online

UFC 253 Free Full Show online DX-TV

 

UFC 253 Free

 

 UFC 253 Free
 


 

 

Watch UFC 253 Free Full Show online

 

UFC 253 PPV Main Card on ESPN+ (10 p.m. ET):

205 lbs.: Dominick Reyes vs. Jan Blachowicz
125 lbs.: Kai Kara-France vs. Brandon Royval
135 lbs.: Ketlen Vieira vs. Sijara Eubanks
145 lbs.: Hakeem Dawodu vs. Zubaira Tukhugov (catchweight of 150 pounds)

UFC 253 Free

UFC 253 Prelims Card on ESPN2/ESPN+ (8 p.m. ET):

155 lbs.: Brad Riddell vs. Alex Da Silva
170 lbs.: Diego Sanchez vs. Jake Matthews
145 lbs.: Ludovit Klein vs. Shane Young
205 lbs.: Aleksa Camur vs. William Knight

UFC 253 Prelims Card on ESPN2/ESPN+ (7 p.m. ET):

265 lbs.: Juan Espino vs. Jeff Hughes
205 lbs.: Khadis Ibragimov vs. Danilo Marques

Watch UFC 253 Free Full Show online

Complete name : UFC.253.PPV.720p.HDTV.x264-DX-TV.COM.mp4
Format : MPEG-4
Format profile : Base Media / Version 2
Codec ID : mp42
File size : 1.86 GiB
Duration : 2 h 56 min
Overall bit rate : 1 507 kb/s

UFC 253 Free

Video
ID : 1
Format : AVC
Duration : 2 h 56 min
Bit rate : 1 338 kb/s
Width : 720 pixels
Height : 480 pixels
Display aspect ratio : 16:9
Original aspect rat : 16:9
Frame rate mode : Constant
Frame rate : 30.000 FPS
Color space : YUV
Chroma subsampling : 4:2:0
Bit depth : 8 bits
Scan type : Progressive
Bits/(Pixel*Frame) : 0.129
Stream size : 1.65 GiB (89%)
Color range : Limited
Color primaries : BT.709
Transfer characteristics : BT.709
Matrix coefficients : BT.709
Codec configuration box : avcC

UFC 253 Free

Audio
ID : 2
Format : AAC LC
Format/Info : Advanced Audio
Codec ID : mp4a-40-2
Duration : 2 h 56 min
Bit rate mode : Constant
Bit rate : 161 kb/s
Channel(s) : 2 channels
Channel layout : L R
Sampling rate : 48.0 kHz
Frame rate : 46.875 FPS (1024 SPF)
Compression mode : Lossy
Stream size : 203 MiB (11%)
Title : Stereo
Language : English
Default : Yes
Alternate group : 1

 

 

 

UFC 253 720p HDTV Full Show Free

 

 

 

 

Watch online

 

 

 

 

 

Server 1

 

 

 

 

watch now

 

 

 

 

Server-2

 

 

 

watch now

 

 

 

 

Server-3

 

 

 

UFC 253 Free

 

 

 

 

Uploaded By Site DX-TV.com

 

 

 

 

Download Free Links with normal and high Speed [ more 15 hosts ]  

 

 

 

http://shrt10.com/yDPn9Y
http://shrt10.com/xk8fRbE
http://shrt10.com/MjBlUZI5
http://shrt10.com/QOW7mf
http://shrt10.com/ddGcpVBvQ
http://shrt10.com/2H4O4Z
http://shrt10.com/ReCtzXn
http://shrt10.com/lcZQzhbMP
http://shrt10.com/mxFh0
http://shrt10.com/TmOd6627W
http://shrt10.com/YPny7rlK
http://shrt10.com/BbpPo
http://shrt10.com/c4YKGIUd

 

 

 

 

Download Links with premium High Speed   

 

 

 

 

 

nitroflare.com

 

 

 

rapidgator.net

 

 

 

uploaded.net

 

 

 

uploadgig.com

 

 

 

 

 

dx-tv.com

 

urlfree.net

Leave a Reply

Your email address will not be published. Required fields are marked *

This site uses Akismet to reduce spam. Learn how your comment data is processed.