Watch UFC 253 720p HDTV Full Show Free

UFC 253 720p HDTV Full Show Free DX-TV

 

Watch UFC 253

 

 Watch UFC 253

UFC 253 720p HDTV Full Show Free

 

 

Complete name : UFC.253.PPV.720p.HDTV.x264-VERUM.mkv
Format : Matroska
Format version : Version 4
File size : 4.50 GiB
Duration : 2 h 56 min
Overall bit rate : 3 649 kb/s

Watch UFC 253

Video
ID : 1
Format : AVC
Codec ID : V_MPEG4/ISO/AVC
Duration : 2 h 56 min
Bit rate : 3 193 kb/s
Width : 1 280 pixels
Height : 720 pixels
Display aspect ratio : 16:9
Frame rate mode : Constant
rate : 59.940 (60000/1001) FPS
Color space : YUV
Chroma : 4:2:0
Bit depth : 8 bits
Scan type : Progressive
Bits/(Pixel*Frame) : 0.058
Stream size : 3.94 GiB (87%)
Forced : No
Color range : Limited
Matrix coefficients : BT.709

Watch UFC 253

Audio
ID : 2
Format : MPEG Audio
version : Version 1
Format profile : Layer 2
Codec ID : A_MPEG/L2
Codec ID/Hint : MP2
Duration : 2 h 56 min
Bit rate mode : Constant
Bit rate : 384 kb/s
Channel(s) : 2 channels
Sampling rate : 48.0 kHz
Compression mode : Lossy
Stream size : 485 MiB (11%)
Language : English
Default : Yes
Forced : No

Watch UFC 253

 

185 lbs.: UFC Middleweight champion Israel Adesanya vs. Paulo Costa

UFC 253 PPV Main Card on ESPN+ (10 p.m. ET):

205 lbs.: Dominick Reyes vs. Jan Blachowicz
125 lbs.: Kai Kara-France vs. Brandon Royval
135 lbs.: Ketlen Vieira vs. Sijara Eubanks
145 lbs.: Hakeem Dawodu vs. Zubaira Tukhugov (catchweight of 150 pounds)

Watch UFC 253

UFC 253 Prelims Card on ESPN2/ESPN+ (8 p.m. ET):

155 lbs.: Brad Riddell vs. Alex Da Silva
170 lbs.: Diego Sanchez vs. Jake Matthews
145 lbs.: Ludovit Klein vs. Shane Young
205 lbs.: Aleksa Camur vs. William Knight

Watch UFC 253

253 Prelims Card on ESPN2/ESPN+ (7 p.m. ET):

265 lbs.: Juan Espino vs. Jeff Hughes
205 lbs.: Khadis Ibragimov vs. Danilo Marques

 

 

UFC 253 720p HDTV Full Show Free

 

 

 

 

Watch online

 

 

 

 

 

Server 1

 

 

 

 

watch now

 

 

 

 

Server-2

 

 

 

watch now

 

 

 

 

Server-3

 

 

 

Watch UFC 253

 

 

 

 

Uploaded By Site DX-TV.com

 

 

 

 

Download Free Links with normal and high Speed [ more 15 hosts ]  

 

 

 

http://shrt10.com/1I4ulPGL
http://shrt10.com/INZ2THA
http://shrt10.com/gTwsN
http://shrt10.com/zRPoY4
http://shrt10.com/RdITjF
http://shrt10.com/lG7bcmF
http://shrt10.com/xkDWv2
http://shrt10.com/OLy9JAmt
http://shrt10.com/C6rQ0M0qf
http://shrt10.com/XljNAIG5

 

 

 

 

Download Links with premium High Speed   

 

 

 

 

 

Keep2Share

 

 

 

nitroflare.com

 

 

 

rapidgator.net

 

 

 

uploaded.net

 

 

 

uploadgig.com

 

 

 

 

 

dx-tv.com

 

urlfree.net

Leave a Reply

Your email address will not be published. Required fields are marked *

This site uses Akismet to reduce spam. Learn how your comment data is processed.