Watch UFC 253 1080p Free Full Show online

UFC 253 1080p Free Full Show online DX-TV

 

UFC 253 Free

 

 UFC 253 Free
 


 

 

Watch UFC 253 1080p Free Full Show online

 

The channel is UFC 253 on tonight?

Viewing options for UFC 253 can be split into two parts: the prelims and main card. Cable subscribers can watch prelim fights on ESPN2 or on the Watch ESPN app at no added charge.

The main card, meanwhile, is a pay-per-view event exclusive to ESPN+. In order to watch those fights, one must pay for a subscription to the ESPN+ streaming service.

What time does Israel Adesanya vs. Paulo Costa start?

Coverage for UFC 253 begins on TV at 7 p.m. ET, when early prelim action gets underway. There are six prelim fights scheduled, and they will be stretched out for about three hours.

The UFC 253 main card starts at 10 p.m., but the Israel Adesanya vs. Paulo Costa headliner might not begin for a couple of more hours, perhaps as late as 12:15 a.m. ET.

Complete name : UFC.253.PPV.1080p.HDTV.x264-VERUM.mkv
Format : Matroska
Format version : Version 4
File size : 11.1 GiB
Duration : 2 h 56 min
Overall bit rate : 8 987 kb/s

Video
ID : 1
Format : AVC
Codec ID : V_MPEG4/ISO/AVC
Duration : 2 h 56 min
Bit rate : 8 425 kb/s
Width : 1 920 pixels
Height : 1 080 pixels
Display aspect ratio : 16:9
Frame rate mode : Constant
rate : 59.940 (60000/1001) FPS
Color space : YUV
Chroma : 4:2:0
Bit depth : 8 bits
Scan type : Progressive
Bits/(Pixel*Frame) : 0.068
Stream size : 10.4 GiB (94%)
Forced : No
Color range : Limited
Matrix coefficients : BT.709

Audio
ID : 2
Format : MPEG Audio
version : Version 1
Format profile : Layer 2
Codec ID : A_MPEG/L2
Codec ID/Hint : MP2
Duration : 2 h 56 min
Bit rate mode : Constant
Bit rate : 384 kb/s
Channel(s) : 2 channels
Sampling rate : 48.0 kHz
Compression mode : Lossy
Stream size : 485 MiB (4%)
Language : English
Default : Yes
Forced : No

 

 

Watch UFC 253 1080p Free Full Show online

 

 

 

 

Watch online

 

 

 

 

 

Server 1

 

 

 

 

watch now

 

 

 

 

Server-2

 

 

 

watch now

 

 

 

 

Server-3

 

 

 

UFC 253 Free

 

 

 

 

Uploaded By Site DX-TV.com

 

 

 

 

Download Free Links with normal and high Speed [ more 15 hosts ]  

 

 

 

 

http://shrt10.com/p9hI5c

 

 

 

Download Links with premium High Speed   

 

 

 

 

 

 

rapidgator.net

 

 

 

 

 

 

dx-tv.com

 

urlfree.net

Leave a Reply

Your email address will not be published. Required fields are marked *

This site uses Akismet to reduce spam. Learn how your comment data is processed.