Watch UFC 247 Erly Prelims 1080p DX-TV

Watch UFC 247 Erly Prelims 1080p DX-TV

 

 

 

 UFC 247

 

UFC 247 Erly Prelims

 

 

Watch UFC 247 Erly Prelims 1080p DX-TV

 

 

 

 

 

Complete name : UFC 247 Erly Prelims 1080p WEB PT 1 DX-TV.mp4
Format : MPEG-4
Format profile : Base Media
File size : 1.89 GiB
Duration : 1 h 4 min
Overall bit rate : 4 169 kb/s

Video
ID : 1
Format : AVC
Duration : 1 h 4 min
Bit rate : 4 000 kb/s
Width : 1 920 pixels
Height : 1 080 pixels
Display aspect ratio : 16:9
Frame rate mode : Constant
Frame rate : 30.000 FPS
Color space : YUV
Chroma subsampling : 4:2:0
Bit depth : 8 bits
Scan type : Progressive
Bits/(Pixel*Frame) : 0.064
Stream size : 1.81 GiB (96%)
Codec configuration box : avcC

Audio
ID : 2
Format : AAC LC
Codec ID : mp4a-40-2
Duration : 1 h 4 min
Bit rate mode : Constant
Bit rate : 161 kb/s
Channel(s) : 2 channels
Channel layout : L R
Sampling rate : 44.1 kHz
Frame rate : 43.066 FPS (1024 SPF)
Compression mode : Lossy
Stream size : 74.7 MiB (4%)
Title : Track1
Default : Yes
Alternate group : 1

Complete name : UFC 247 Erly Prelims 1080p WEB PT 2 DX-TV.mp4
Format : MPEG-4
Format profile : Base Media
Codec ID : isom (isom/iso2/avc1/mp41)
File size : 649 MiB
Duration : 21 min 45 s
Overall bit rate : 4 170 kb/s
Writing application : Lavf58.20.100

Video
ID : 1
Format : AVC
Duration : 21 min 45 s
Bit rate : 4 000 kb/s
Width : 1 920 pixels
Height : 1 080 pixels
Display aspect ratio : 16:9
Frame rate mode : Constant
Frame rate : 30.000 FPS
Color space : YUV
Chroma subsampling : 4:2:0
Bit depth : 8 bits
Scan type : Progressive
Bits/(Pixel*Frame) : 0.064
Stream size : 623 MiB (96%)

Audio
ID : 2
Format : AAC LC
Codec ID : mp4a-40-2
Duration : 21 min 45 s
Bit rate mode : Constant
Bit rate : 160 kb/s
Channel(s) : 2 channels
Channel layout : L R
Sampling rate : 44.1 kHz
Frame rate : 43.066 FPS (1024 SPF)
Compression mode : Lossy
Stream size : 24.9 MiB (4%)
Title : Track1
Default : Yes
Alternate group : 1

Watch UFC 247 Erly Prelims

 

Watch online

 

 

Waiting finish converting video

 

 

Server 1

 

 

 

 

 

 

Server 2

 

 

Watch UFC 247 Erly Prelims 1080p DX-TV

 

 

 

Uploaded By Site DX-TV.com

 

 

 

 

 

1fichier.com 

 

 

 

earn4files.com

 

 

 

Download with premium account Links 

 

 

Keep2Share

 

 

nitroflare.com

 

 

rapidgator.net

 

 

uploadgig.com

 

 

 

dx-tv.com

UFC 247

You May Also Like