Watch UFC 247 Early Prelims 720p

Watch UFC 247 Early Prelims 720p DX-TV

 

 

 

 UFC 247

 

 

 

 

Watch UFC 247 Early Prelims 720p

 

 

Complete name : UFC.247.Early.Prelims.720p.mp4
Format : MPEG-4
Format profile : Base Media
Codec ID : isom
File size : 1.80 GiB
Duration : 1 h 13 min
Overall bit rate mode : Variable
Overall bit rate : 3 476 kb/s
Writing application : Lavf58.12.100

Video
ID : 1
Format : AVC
Duration : 1 h 13 min
Bit rate : 3 372 kb/s
Width : 1 280 pixels
Height : 720 pixels
Display aspect ratio : 16:9
Frame rate mode : Constant
Frame rate : 30.000 FPS
Color space : YUV
Chroma subsampling : 4:2:0
Bit depth : 8 bits
Scan type : Progressive
Bits/(Pixel*Frame) : 0.122
Stream size : 1.72 GiB (96%)
Audio
ID : 2
Format : AAC LC
Format/Info : Advanced Audio Codec Low Complexity
Codec ID : mp4a-40-2
Duration : 1 h 13 min
Bit rate mode : Variable
Bit rate : 129 kb/s
Maximum bit rate : 135 kb/s
Channel(s) : 2 channels
Channel layout : L R
Sampling rate : 48.0 kHz
Frame rate : 46.875 FPS (1024 SPF)
Compression mode : Lossy
Stream size : 68.1 MiB (4%)
Default : Yes
Alternate group : 1

 

 

Watch online

 

Server 1

 

 

 

 

 

 

 

 

 

 

 

Server 2

 

 

 

 


 

 

Server–3

 

 

 

 


 

 

Watch UFC 247 Early Prelims 720p

 

 

 

Uploaded By Site DX-TV.com

 

 

 

 

 

1fichier.com 

 

 

DDL.to

 

 

 

earn4files.com

 

 

rockfile.co

 

 

 

Download with premium account Links 

 

 

Keep2Share

 

 

nitroflare.com

 

 

rapidgator.net

 

 

uploadgig.com

 

 

 

dx-tv.com