Watch UFC 246 Prelims 720p

Watch UFC 246 Prelims 720p DX-TV

 

 

UFC 246

 

 

 

 

dx-tv.com

 

 

 

 

Watch UFC 246 Prelims 720p

 

 

 

 

 

Complete name : UFC.246.Prelims.720p.mp4
Format : MPEG-4
Format profile : Base Media
File size : 3.24 GiB
Duration : 2 h 32 min
Overall bit rate mode : Variable
Overall bit rate : 3 035 kb/s
Writing application : Lavf58.12.100

Video
ID : 2
Format : AVC
Duration : 2 h 32 min
Bit rate mode : Variable
Bit rate : 2 895 kb/s
Maximum bit rate : 3 159 kb/s
Width : 1 280 pixels
Height : 720 pixels
Display aspect ratio : 16:9
Frame rate mode : Variable
Frame rate : 30.000 FPS
Minimum frame rate : 29.412 FPS
Maximum frame rate : 30.303 FPS
Standard : NTSC
Color space : YUV
Chroma subsampling : 4:2:0
Bit depth : 8 bits
Scan type : Progressive
Bits/(Pixel*Frame) : 0.105
Stream size : 3.09 GiB (95%)
Color range : Limited
Color primaries : BT.709
Transfer characteristics : BT.709
Matrix coefficients : BT.709
Codec configuration box : avcC

Audio
ID : 3
Format : AAC LC
Codec ID : mp4a-40-2
Duration : 2 h 32 min
Bit rate mode : Variable
Bit rate : 132 kb/s
Maximum bit rate : 138 kb/s
Channel(s) : 2 channels
Channel layout : L R
Sampling rate : 48.0 kHz
Frame rate : 46.875 FPS (1024 SPF)
Compression mode : Lossy
Stream size : 144 MiB (4%)
Default : Yes
Alternate group : 1

 

 

Watch online

 

 

Server 1

 

 

 

 

 

 

 

 

 

 

 

Server 2

 

 

 

 

 

 

 

 

 

 

Server–3

 

 

 

 

 

 

 

 

 

Watch UFC 246 Prelims 720p

 

 

 

Uploaded By Site DX-TV.com

 

 

 

 

 

Download VIP Members FTP server Download 1 Link and Free Links 

 

 

 

Limited Time will be removed after 90 days if you need available again pm email admin

 

[member]  

 

FTP Link Download high speed

[/member]  

1fichier.com 

 

earn4files.com

 

 

filerio.in

 

 

 

Download with premium account Links 

 

 

nitroflare.com

 

 

rapidgator.net

 

 

uploaded.net

 

 

 

 

 

 

 

 

 

WE need Staff/ Uploader/ Capper best quality For DX-TV
For More INFO Send PM for Admin on Email : [email protected]

X