Watch UFC 237 Prelims 720p WEB DL free full show online

Watch UFC 237 Prelims 720p WEB DL free full show online

 

 

 

 


 

 

dx-tv.com

 

 

 

 

 

Complete name : UFC.237.Prelims.720p.WEB-DL..mp4
Format : MPEG-4
Format profile : Base Media
Codec ID : isom (isom/iso2/avc1/mp41)
File size : 3.61 GiB
Duration : 2 h 0 min
Overall bit rate : 4 310 kb/s
Writing application : Lavf58.12.100

Video
ID : 1
Format : AVC
Format/Info : Advanced Video Codec
Codec ID : avc1
Codec ID/Info : Advanced Video Coding
Duration : 2 h 0 min
Bit rate : 4 171 kb/s
Width : 1 280 pixels
Height : 720 pixels
Display aspect ratio : 16:9
Frame rate mode : Constant
Frame rate : 29.970 (30000/1001) FPS
Original frame rate : 29.970 (29970/1000) FPS
Color space : YUV
Chroma subsampling : 4:2:0
Bit depth : 8 bits
Scan type : Progressive
Bits/(Pixel*Frame) : 0.151
Stream size : 3.50 GiB (97%)
Codec configuration box : avcC

Audio
ID : 2
Format : AAC LC
Format/Info : Advanced Audio Codec Low Complexity
Codec ID : mp4a-40-2
Duration : 2 h 0 min
Bit rate mode : Constant
Bit rate : 132 kb/s
Channel(s) : 2 channels
Channel layout : L R
Sampling rate : 44.1 kHz
Frame rate : 43.066 FPS (1024 SPF)
Compression mode : Lossy
Stream size : 111 MiB (3%)
Default : Yes
Alternate group : 1

 

 

 

 

 


 

Watch UFC 237 Prelims 720p WEB DL free full show online

 

 

 

 

Watch online

 

 

Waiting finish converting video

 

 

Server 1

 

 

 

 

 


 

 

 

 

Server 2

 

 

 

 

 


 

 


 

Uploaded By Site DX-TV.com

 

 

 

open rar file to see this password

 

 

 

 

The password : DX-TV.com

 

 

 


 

 
https://shrt10.com/yXYC4
 

 
https://shrt10.com/A8ZX
 

 
https://shrt10.com/l8fJ
 

 
https://shrt10.com/rOXYDb0U

 

 

 

Watch UFC 237 Prelims 720p WEB DL free full show online

Leave a Reply

Your email address will not be published. Required fields are marked *