Watch UFC 237 Namajunas vs Andrade HDTV Star free full show online

Watch UFC 237 Namajunas vs Andrade HDTV Star free full show online

 

 

 


 

 

dx-tv.com

 

 

 

 

UFC.237.Namajunas.vs.Andrade.HDTV.x264-Star
Release Info:
Show Name: UFC 237 Namajunas vs Andrade
Genre: MMA
Release Date: 2019-04-14(UK)
Air Date: 2019-04-13(US)
Source : HDTV
Container: MP4
Video: x264, 1471Kbps, 29,970fps, 712×400, 16:9
Audio: AAC, 160Kbps, 48KHz, 2ch
Size: 1.74 GB
Runtime: 2h 49mn

 

Complete name : UFC.237.Namajunas.vs.Andrade.HDTV.x264-Star.mp4
Format : MPEG-4
Format profile : Base Media / Version 2
Codec ID : mp42 (isom/iso2/avc1/mp41)
File size : 1.74 GiB
Duration : 2 h 49 min
Overall bit rate : 1 471 kb/s
Encoded date : UTC 2019-05-12 05:43:45
Tagged date : UTC 2019-05-12 05:43:45

Video
ID : 1
Format : AVC
Format/Info : Advanced Video Codec
Codec ID/Info : Advanced Video Coding
Duration : 2 h 49 min
Bit rate : 1 300 kb/s
Width : 712 pixels
Height : 400 pixels
Display aspect ratio : 16:9
Frame rate mode : Constant
Frame rate : 29.970 (30000/1001) FPS
Color space : YUV
Chroma subsampling : 4:2:0
Bit depth : 8 bits
Scan type : Progressive
Bits/(Pixel*Frame) : 0.152
Stream size : 1.54 GiB (88%)

Color range : Limited
Color primaries : BT.601 NTSC
Transfer characteristics : BT.709
Matrix coefficients : BT.601
Codec configuration box : avcC

Audio
ID : 2
Format : AAC LC
Format/Info : Advanced Audio Codec Low Complexity
Codec ID : mp4a-40-2
Duration : 2 h 49 min
Bit rate mode : Constant
Bit rate : 161 kb/s
Channel(s) : 2 channels
Channel layout : L R
Sampling rate : 48.0 kHz
Frame rate : 46.875 FPS (1024 SPF)
Compression mode : Lossy
Stream size : 195 MiB (11%)
Title : Stereo
Default : Yes
Alternate group : 1
Encoded date : UTC 2019-05-12 05:43:45
Tagged date : UTC 2019-05-12 05:43:45

 

 

 

Watch UFC 237 Namajunas vs Andrade HDTV Star free full show online

 

 

 

 

Watch online

 

 

Waiting finish converting video

 

 

Server 1

 

 

 

 

 


 

 

 

 

 

Server 2

 

 

 

 

 


 

 

 

Uploaded By Site DX-TV.com

 

 

 

open rar file to see this password

 

 

 

 

The password : DX-TV.com

 

 

 


 

https://shrt10.com/CDoKDHMC

 

 

https://shrt10.com/2dII

 

 

https://shrt10.com/JDNG

 

 

https://shrt10.com/tJfNs7

 

 

 

 

 

Watch UFC 237 Namajunas vs Andrade HDTV Star free full show online

Leave a Reply

Your email address will not be published. Required fields are marked *

eighteen − 11 =