Watch UFC 237 Namajunas vs Andrade 720p HDTV Star full show free mp4

Watch UFC 237 Namajunas vs Andrade 720p HDTV Star full show free mp4

 

 

 

 


 

 

dx-tv.com

 

 

 

 

Complete name : UFC.237.Namajunas.vs.Andrade.720p.HDTV.x264-Star.mp4
Format : MPEG-4
Format profile : Base Media / Version 2
Codec ID : mp42 (isom/iso2/avc1/mp41)
File size : 5.57 GiB
Duration : 2 h 49 min
Overall bit rate : 4 705 kb/s
Encoded date : UTC 2019-05-12 06:56:18
Tagged date : UTC 2019-05-12 06:56:18

Video
ID : 1
Format : AVC
Format/Info : Advanced Video Codec
Codec ID : avc1
Codec ID/Info : Advanced Video Coding
Duration : 2 h 49 min
Bit rate : 4 500 kb/s
Width : 1 280 pixels
Height : 720 pixels
Display aspect ratio : 16:9
Frame rate mode : Constant
Frame rate : 29.970 (30000/1001) FPS
Color space : YUV
Chroma subsampling : 4:2:0
Bit depth : 8 bits
Scan type : Progressive
Bits/(Pixel*Frame) : 0.163
Stream size : 5.33 GiB (96%)
Encoded date : UTC 2019-05-12 06:56:18
Tagged date : UTC 2019-05-12 06:56:18
Color range : Limited
Color primaries : BT.709
Transfer characteristics : BT.709
Matrix coefficients : BT.709
Codec configuration box : avcC

Audio
ID : 2
Format : AAC LC
Format/Info : Advanced Audio Codec Low Complexity
Codec ID : mp4a-40-2
Duration : 2 h 49 min
Bit rate mode : Constant
Bit rate : 192 kb/s
Channel(s) : 2 channels
Channel layout : L R
Sampling rate : 48.0 kHz
Frame rate : 46.875 FPS (1024 SPF)
Compression mode : Lossy
Stream size : 234 MiB (4%)
Title : Stereo
Default : Yes
Alternate group : 1
Encoded date : UTC 2019-05-12 06:56:18
Tagged date : UTC 2019-05-12 06:56:18

 

 

 

 

 


 

Watch UFC 237 Namajunas vs Andrade 720p HDTV Star full show free mp4

 

 

 

 

Watch online

 

 

Waiting finish converting video

 

 

Server 1

 

 

 

 

 

 

 

 

 

 

 

 

 

 

 

 

Server 2

 

 

 

 

 

 

 

 

 

 

 

 

 



 

Uploaded By Site DX-TV.com

 

 

 

open rar file to see this password

 

 

 

 

The password : DX-TV.com

 

 

 

 

Uploaded.net + rapidgator.net + katfile.com + bitster.cz

 

 

 

 


 

https://shrt10.com/cDCexNf5
 

 
https://shrt10.com/9cvgb
 

 
https://shrt10.com/IvKpd

 

 
https://shrt10.com/mpBNfGD2
 

 
https://shrt10.com/JVw29
 

 

 

 

 

 

Watch UFC 237 Namajunas vs Andrade 720p HDTV Star full show free mp4

Leave a Reply

Your email address will not be published. Required fields are marked *