Watch UFC 237 Early Prelims WEB DL free full show online

Watch UFC 237 Early Prelims WEB DL free full show online

 

 

 

 


 

 

dx-tv.com

 

 

 

 

 

Complete name : UFC.237.Early.Prelims.WEB-DL.mp4
Format : MPEG-4
Format profile : Base Media
Codec ID : isom (isom/iso2/avc1/mp41)
File size : 958 MiB
Duration : 1 h 29 min
Overall bit rate : 1 495 kb/s
Writing application : Lavf58.12.100

Video
ID : 1
Format : AVC
Format/Info : Advanced Video Codec
Codec ID : avc1
Codec ID/Info : Advanced Video Coding
Duration : 1 h 29 min
Bit rate : 1 404 kb/s
Width : 960 pixels
Height : 540 pixels
Display aspect ratio : 16:9
Frame rate mode : Constant
Frame rate : 29.970 (30000/1001) FPS
Original frame rate : 29.970 (29970/1000) FPS
Color space : YUV
Chroma subsampling : 4:2:0
Bit depth : 8 bits
Scan type : Progressive
Bits/(Pixel*Frame) : 0.090
Stream size : 900 MiB (94%)
Codec configuration box : avcC

Audio
ID : 2
Format : AAC LC
Format/Info : Advanced Audio Codec Low Complexity
Codec ID : mp4a-40-2
Duration : 1 h 29 min
Bit rate mode : Constant
Bit rate : 81.0 kb/s
Channel(s) : 2 channels
Channel layout : L R
Sampling rate : 44.1 kHz
Frame rate : 43.066 FPS (1024 SPF)
Compression mode : Lossy
Stream size : 51.9 MiB (5%)
Default : Yes
Alternate group : 1

 

 EarlyPrelims –

Luana Carolina vs. Priscila Cachoeira
Raoni Barcelos vs. Carlos Huachin
Talita Fernando vs. Viviane Araujo

 

 

 

Watch UFC 237 Early Prelims WEB DL free full show online

 

 

 

 

Watch online

 

 

Waiting finish converting video

 

 

Server 1

 

 

 

 

 


 

 

 

Server 2

 

 

 

 

 


 

Uploaded By Site DX-TV.com

 

 

 

open rar file to see this password

 

 

 

 

The password : DX-TV.com

 

 

 


 

https://shrt10.com/CbcT
 

 
https://shrt10.com/qTWx
 

 
https://shrt10.com/hYLUa
 

 
https://shrt10.com/qOSbQ6ai

 

 

 

 

Watch UFC 237 Early Prelims WEB DL free full show online

Leave a Reply

Your email address will not be published. Required fields are marked *