Watch UFC 237 Early Prelims 720p WEB DL free full show online

Watch UFC 237 Early Prelims 720p WEB DL free full show online

 

 

 

 


 

 

dx-tv.com

 

 

 

 

Complete name : UFC.237.Early.Prelims.720p.WEB-DL.mp4
Format : MPEG-4
Format profile : Base Media
Codec ID : isom (isom/iso2/avc1/mp41)
File size : 2.70 GiB
Duration : 1 h 29 min
Overall bit rate : 4 313 kb/s
Writing application : Lavf58.12.100

Video
ID : 1
Format : AVC
Format/Info : Advanced Video Codec
Format settings, Reference : 3 frames
Codec ID : avc1
Codec ID/Info : Advanced Video Coding
Duration : 1 h 29 min
Bit rate : 4 174 kb/s
Width : 1 280 pixels
Height : 720 pixels
Display aspect ratio : 16:9
Frame rate mode : Constant
Frame rate : 29.970 (30000/1001) FPS
Original frame rate : 29.970 (29970/1000) FPS
Color space : YUV
Chroma subsampling : 4:2:0
Bit depth : 8 bits
Scan type : Progressive
Bits/(Pixel*Frame) : 0.151
Stream size : 2.61 GiB (97%)
Codec configuration box : avcC

Audio
ID : 2
Format : AAC LC
Format/Info : Advanced Audio Codec Low Complexity
Codec ID : mp4a-40-2
Duration : 1 h 29 min
Bit rate mode : Constant
Bit rate : 132 kb/s
Channel(s) : 2 channels
Channel layout : L R
Sampling rate : 44.1 kHz
Frame rate : 43.066 FPS (1024 SPF)
Compression mode : Lossy
Stream size : 83.3 MiB (3%)
Default : Yes
Alternate group : 1

 
EarlyPrelims
Luana Carolina vs. Priscila Cachoeira
Raoni Barcelos vs. Carlos Huachin
Talita Fernando vs. Viviane Araujo
 

 

 

 

Watch UFC 237 Early Prelims 720p WEB DL free full show online

 

 

 

 

Watch online

 

 

Waiting finish converting video

 

 

Server 1

 

 

 

 

 


 

 

 

Server 2

 

 

 

 

 


 

Uploaded By Site DX-TV.com

 

 

 

open rar file to see this password

 

 

 

 

The password : DX-TV.com

 

 

 


 

https://shrt10.com/4ouu1cM
 

 
https://shrt10.com/teX3CO
 

 
https://shrt10.com/f1iknWFx
 

 
https://shrt10.com/U26EDhp4

 

 

 

 

Watch UFC 237 Early Prelims 720p WEB DL free full show online

Author: snaw90

Leave a Reply

Your email address will not be published. Required fields are marked *