Watch UFC 236 720p HDTV VERUM full show online

 

 

 


 

 

dx-tv.com

 

 

 

 

 

 
Complete name : UFC.236.720p.HDTV.x264-VERUM.mkv
Format : Matroska
File size : 4.86 GiB
Duration : 3h 33mn
Overall bit rate : 3 257 Kbps
Writing application : x264.exe
Writing library : MS-DOS 6.22

Video
ID : 1
Format : AVC
Format/Info : Advanced Video Codec
Format settings, ReFrames : 5 frames
Codec ID : V_MPEG4/ISO/AVC
Duration : 3h 33mn
Bit rate : 2 936 Kbps
Width : 1 280 pixels
Height : 720 pixels
Display aspect ratio : 16:9
Frame rate : 50.000 fps
Color space : YUV
Chroma subsampling : 4:2:0
Bit depth : 8 bits
Scan type : Progressive
Bits/(Pixel*Frame) : 0.064
Stream size : 4.38 GiB (90%)

Audio
ID : 2
Format version : Version 1
Format profile : Layer 2
Codec ID : A_MPEG/L2
Codec ID/Hint : MP2
Duration : 3h 33mn
Bit rate mode : Constant
Bit rate : 256 Kbps
Channel(s) : 2 channels
Sampling rate : 48.0 KHz
Compression mode : Lossy
Stream size : 391 MiB (8%)
Language : English

 

 

 

 


 

 

Watch UFC 236 720p HDTV VERUM full show online

 

 

 

 

Watch online

 

 

Waiting finish converting video

 

 

Server 1

 

 

 

 

 

 

 

 

 


 

 

 

Server 2

 

 

 

 

 

 

 


 


 

 

Uploaded By Site DX-TV.com

 

 

 

open rar file to see this password

 

 

 

 

The password : DX-TV.com

 

 

 

 

Uploaded.net + rapidgator.net

 

 

 

 


 

https://shrt10.com/JjYC
 

 

 
https://shrt10.com/BZn7zTRl
 

 

 
https://shrt10.com/PBL9
 

 

 
https://shrt10.com/xRcFZ3s

 

 

 

 

 

Watch UFC 236 720p HDTV VERUM full show online