Watch UFC 230 Erly Prelims HDTV Star

Watch UFC 230 Erly Prelims HDTV Star

 

 

 

 


 

 

 

dx-tv.com

 

 

 

 

 

 

Complete name : UFC.230.Early.Prelims.HDTV.x264-Star.mp4
Format : MPEG-4
Format profile : Base Media
File size : 1.07 GiB
Duration : 1 h 44 min
Overall bit rate mode : Variable
Overall bit rate : 1 459 kb/s
Encoded date : UTC 2018-11-04 02:21:53
Tagged date : UTC 2018-11-04 02:21:53

Video
ID : 1
Format : AVC
Format/Info : Advanced Video Codec
Codec ID : avc1
Codec ID/Info : Advanced Video Coding
Duration : 1 h 44 min
Bit rate : 1 300 kb/s
Width : 712 pixels
Height : 400 pixels
Display aspect ratio : 16:9
Frame rate mode : Constant
Frame rate : 29.970
Color space : YUV
Chroma subsampling : 4:2:0
Bit depth : 8 bits
Scan type : Progressive
Bits/(Pixel*Frame) : 0.152
Stream size : 969 MiB (89%)
Encoded date : UTC 2018-11-04 02:21:53
Tagged date : UTC 2018-11-04 02:21:53
Color range : Limited
Color primaries : BT.709
Transfer characteristics : BT.709
Matrix coefficients : BT.709

Audio
ID : 2
Format : AAC
Format/Info : Advanced Audio Codec
Format profile : LC
Codec ID : mp4a-40-2
Duration : 1 h 44 min
Bit rate mode : Variable
Bit rate : 160 kb/s
Channel(s) : 2 channels
Channel positions : Front: L R
Sampling rate : 48.0 kHz
Frame rate : 46.875 FPS (1024 SPF)
Compression mode : Lossy
Stream size : 120 MiB (11%)
Title : Stereo / Stereo
Default : Yes
Alternate group : 1
Encoded date : UTC 2018-11-04 02:21:53
Tagged date : UTC 2018-11-04 02:21:53

 

 

 

Watch UFC 230 Erly Prelims HDTV Star

 

 

 

 

Watch online

 

 

Waiting finish converting video

 

 

Server 1

 

 

 

 

 

 

 

 

 

 

 

 

 

 

 

Server 2

 

 

 

 

 

 

 

 

 

 

 

 

 

 

Uploaded By Site DX-TV.com

 

 

 

open rar file to see this password

 

 

 

 

The password : DX-TV.com

 

 

 

 

Uploaded.net + rapidgator.net

 

 

 

 

 

http://shrt10.com/WP3hcJX

 

 

http://shrt10.com/SWBu8wX
 

 

 

 

 

 

Watch UFC 230 Erly Prelims HDTV Star

Leave a Reply

This site uses Akismet to reduce spam. Learn how your comment data is processed.