Watch UFC 230 Cormier vs Lewis HDTV Star

Watch UFC 230 Cormier vs Lewis HDTV Star

 

 

 

 


 

 

 

 

dx-tv.com

 

Complete name : UFC.230.Cormier.vs.Lewis.HDTV.x264-Star.mp4
Format : MPEG-4
Format profile : Base Media / Version 2
Codec ID : mp42 (isom/iso2/avc1/mp41)
File size : 1.74 GiB
Duration : 2 h 49 min
Overall bit rate mode : Variable
Overall bit rate : 1 465 kb/s

 

Video
ID : 1
Format : AVC
Format/Info : Advanced Video Codec
Codec ID/Info : Advanced Video Coding
Duration : 2 h 49 min
Bit rate : 1 300 kb/s
Width : 712 pixels
Height : 400 pixels
Display aspect ratio : 16:9
Frame rate mode : Constant
Frame rate : 29.970 (30000/1001) FPS
Color space : YUV
Chroma subsampling : 4:2:0
Bit depth : 8 bits
Scan type : Progressive
Bits/(Pixel*Frame) : 0.152
Stream size : 1.54 GiB (89%)
Color range : Limited
Color primaries : BT.601 NTSC
Transfer characteristics : BT.709
Matrix coefficients : BT.601

Audio
ID : 2
Format : AAC
Format/Info : Advanced Audio Codec
Format profile : LC
Codec ID : mp4a-40-2
Duration : 2 h 49 min
Bit rate mode : Variable
Bit rate : 160 kb/s
Channel(s) : 2 channels
Channel positions : Front: L R
Sampling rate : 48.0 kHz
Frame rate : 46.875 FPS (1024 SPF)
Compression mode : Lossy
Stream size : 195 MiB (11%)
Title : Stereo / Stereo
Default : Yes
Alternate group : 1
Encoded date : UTC 2018-11-04 05:28:46
Tagged date : UTC 2018-11-04 05:28:46

 

 

 

Watch UFC 230 Cormier vs Lewis HDTV Star

 

 

 

 

Watch online

 

 

Waiting finish converting video

 

 

Server 1

 

 

 

 

 

 

 

 

 

 

 

 

 

 

 

Server 2

 

 

 

 

 

 


 

 

 

 

 

 

 

 

Uploaded By Site DX-TV.com

 

 

 

open rar file to see this password

 

 

 

 

The password : DX-TV.com

 

 

 

 

Uploaded.net + rapidgator.net

 

 

 

http://shrt10.com/Oq8zmm
 

 

 

 

 
http://shrt10.com/br04i

 

 

 

 

 

 

Watch UFC 230 Cormier vs Lewis HDTV Star

Leave a Reply

This site uses Akismet to reduce spam. Learn how your comment data is processed.