Watch Turning Point 2020 540p -Impact Wrestling Free Online

Turning Point 2020 540p -Impact Wrestling Free Online DX-TV

Impact Wrestling Turning Point 2020

 

Impact Wrestling Turning Point 2020

 

Watch Turning Point 2020 540p -Impact Wrestling Free Online

 

 

Complete name : Impact Wrestling Turning Point 2020 540P WEB DX-TV.mp4
Format : Matroska
Format version : Version 4
File size : 1.55 GiB
Duration : 2 h 39 min
Overall bit rate : 1 394 kb/s

Impact Wrestling Turning Point 2020

Video
ID : 2
Format : AVC
Duration : 2 h 39 min
Bit rate : 1 199 kb/s
Width : 960 pixels
Height : 540 pixels
Display aspect ratio : 16:9
Frame rate mode : Constant
Frame rate : 30.000 FPS
Color space : YUV
Chroma subsampling : 4:2:0
Bit depth : 8 bits
Scan type : Progressive
Bits/(Pixel*Frame) : 0.077
Stream size : 1.33 GiB (86%)
Default : Yes
Forced : No
Color range : Limited
Color primaries : BT.709
Transfer characteristics : BT.709
Matrix coefficients : BT.709

Impact Wrestling Turning Point 2020

Audio
ID : 1
Format : AAC LC
Format/Info : Advanced Audio
Codec ID : A_AAC-2
Duration : 2 h 39 min
Bit rate : 192 kb/s
Channel(s) : 2 channels
Channel layout : L R
Sampling rate : 48.0 kHz
Frame rate : 46.875 FPS
Compression mode : Lossy
Stream size : 218 MiB (14%)
Default : Yes
Forced : No

Impact Wrestling Turning Point 2020

Su Yung shocked the world when she answered Deonna Purrazzo‘s open challenge at Bound For Glory.

and became the new Knockouts Champion in the process.

After Purrazzo sought legal action in the form of Barrister RD Evans.

Executive Vice President Scott D’amore awarded The Virtuosa her rematch on IMPACT!

However, it was Kimber Lee who introduced a steel chair into the match.

leading to Su Yung getting disqualified after she used it as a weapon.

This time around, D’amore was one step ahead of the Barrister .

as he announced a rematch for Turning Point on IMPACT Plus.

But this time, it will be contested under No Disqualification rules.

 

Watch Turning Point 2020 540p -Impact Wrestling Free Online

 

Watch online

 

 

Server 1

 

 

 

 

 

 

 

 

Server-2

 

 

 

 

 

 

 

Uploaded By Site DX-TV.com

 

 

 

 

Download Free Links with normal and high Speed [ more 14 hosts ]  

 

[su_expand more_text=”Show Hosts Info” less_text=”Close all Info” height=”30″ text_color=”#000000″ link_color=”#e25f8b” link_style=”button” more_icon=”icon: arrow-down” less_icon=”icon: arrow-up”]

Impact Wrestling Turning Point 2020

 

hexupload.net – clicknupload.co – www.multiup.org

– uptobox.com – anonfiles.com – userscloud.com –

dropapk.to alfafile.net – ddownload.com – rockfile.co

– 1fichier.com – filedown.org – katfile.com – filerio.in

 

 

[/su_expand]

 

 

http://shrt10.com/Db3fNY
http://shrt10.com/PpfRCNsR
http://shrt10.com/6UYQOfb
http://shrt10.com/UwDoz
http://shrt10.com/JB06wAA
http://shrt10.com/LFZ7rL
http://shrt10.com/BHJHr
http://shrt10.com/y0IdtgxN

 

 

 

 

Download Links with premium High Speed   

 

 Wrestling Turning Point 2020

 

 

dropapk.to

 

 

 

nitroflare.com

 

 

 

rapidgator.net

 

 

 

uploaded.net

 

 

 

uploadgig.com

 

 

 

 

 

dx-tv.com

 

urlfree.net

Leave a Reply

Your email address will not be published. Required fields are marked *

This site uses Akismet to reduce spam. Learn how your comment data is processed.