Watch Tokyo Joshi Pro Wrestle Princess 2020 11 07 Japanese

Tokyo Joshi Pro Wrestle Princess 2020 11 07 Japanese DX-TV

Tokyo Joshi Pro Wrestle Princess 2020

 

 Tokyo Joshi Pro Wrestle Princess 2020

 

Watch Tokyo Joshi Pro Wrestle Princess 2020 11 07 Japanese

 

 

 

 
Complete name : Tokyo.Joshi.Pro.2020.11.07.Wrestle.Princess.JAPANESE.WEB.h264-LATE.mkv
Format : Matroska
Format version : Version 4
File size : 3.32 GiB
Duration : 4 h 11 min
Overall bit rate : 1 894 kb/s

Tokyo Joshi Pro Wrestle Princess 2020

Video
ID : 1
Format : AVC
Duration : 4 h 11 min
Bit rate : 1 795 kb/s
Width : 960 pixels
Height : 540 pixels
Display aspect ratio : 16:9
Frame rate mode : Constant
Frame rate : 30.000 FPS
Color space : YUV
Chroma subsampling : 4:2:0
Bit depth : 8 bits
Scan type : Progressive
Bits/(Pixel*Frame) : 0.115
Stream size : 3.15 GiB (95%)
Default : Yes
Forced : No
Color range : Limited
Color primaries : BT.601 PAL
Transfer characteristics : BT.601
Matrix coefficients : BT.470 

Tokyo Joshi Pro Wrestle Princess 2020

Audio
ID : 2
Format : AAC LC
Format/Info : Advanced Audio
Codec ID : A_AAC-2
Duration : 4 h 11 min
Bit rate : 96.0 kb/s
Channel(s) : 2 channels
Channel layout : L R
Sampling rate : 44.1 kHz
Frame rate : 43.066 FPS
Compression mode : Lossy
Stream size : 172 MiB (5%)
Language : English
Default : Yes
Forced : No

Tokyo Joshi Pro Wrestle Princess 2020

Mizuki will now face her Magical Sugar Rabbits tag team partner Yuka Sakazaki in a Princess Of Princess Championship .

TJPW’s next major event Wrestle Princess which takes place at Tokyo Dome City Hall in November.

Mizuki did not have an easy path to victory although she did benefit from a first-round bye, in the second round she beat rookie Suzume.

 before defeating Yuki Aino in the quarter-final.  She then faced the proposition of two matches in one day as she defeated .

Maki Itoh in their semi-final and then in the main event of today’s show she beat the former.

Princess Of Princess Champion Shoko Nakajima to secure the tournament win.

 Joshi Pro Wrestle Princess 2020

Stay tuned to the Last Word on Pro Wrestling for more on this and other stories from around the world of wrestling, as they develop.

You can always count on LWOPW to be on top of the major news in the wrestling world.

as well as to provide you with analysis, previews, videos, interviews, and editorials on the wrestling world.

You can see TJPW as well as Dramatic Dream TeamBASARA, and more on WRESTLE UNIVERSE.

 

Watch Tokyo Joshi Pro Wrestle Princess 2020 11 07 Japanese

Watch online

 

 

Server 1

 

 

 

Tokyo Joshi Pro Wrestle Princess 2020

 

 

 

 

Server-2

 

 

 

watch now

 

 

 

 

 

 

Uploaded By Site DX-TV.com

 

 

 

 

Download Free Links with normal and high Speed [ more 14 hosts ]  

 

[su_expand more_text=”Show Hosts Info” less_text=”Close all Info” height=”30″ text_color=”#000000″ link_color=”#e25f8b” link_style=”button” more_icon=”icon: arrow-down” less_icon=”icon: arrow-up”]

 

Tokyo Joshi Pro Wrestle Princess 2020

hexupload.net – clicknupload.co – www.multiup.org – uptobox.com – anonfiles.com – userscloud.com –

dropapk.to alfafile.net – ddownload.com – rockfile.co – 1fichier.com – filedown.org – katfile.com – filerio.in

 

 

[/su_expand]

 

 

http://shrt10.com/f6xTmG4z
http://shrt10.com/6lxzWmSk
http://shrt10.com/Rgd4L
http://shrt10.com/gV1EZN
http://shrt10.com/bnghUwdaE
http://shrt10.com/fes9s

 

 

 

 

Download Links with premium High Speed   

 

 

 

 

dropapk.to

 

 

 

nitroflare.com

 

 

 

rapidgator.net

 

 

 

uploaded.net

 

 

 

uploadgig.com

 

 

 

 

 

dx-tv.com

 

urlfree.net

You May Also Like

1 Comment

Leave a Reply

Your email address will not be published. Required fields are marked *

This site uses Akismet to reduce spam. Learn how your comment data is processed.