Watch Tokyo Joshi Pro 2021 01 31 Winter Lovers

Watch Tokyo Joshi Pro 2021 01 31 Winter Lovers 720p DX-TV

Watch Tokyo Joshi Pro

 Watch Tokyo Joshi Pro

 

Download Links with premium High Speed   

 

 

dropapk.to

http://shrt10.com/MrlMYY

 

 

nitroflare.com

http://shrt10.com/DHNqlwL

 

 

rapidgator.net

http://shrt10.com/Bs1HXqbUm

 

 

uploaded.net

http://shrt10.com/x8sEDdXz7

 

 

 

 

Uploaded By Site DX-TV.com

 

Complete name : Tokyo.Joshi.Pro.2021.01.31.01.Opening.720p.WEB.h264-LATE.mkv
Format : Matroska
Format version : Version 4
File size : 74.6 MiB
Duration : 5 min 13 s
Overall bit rate : 1 998 kb/s

Video
ID : 1
Format : AVC
Format/Info : Advanced Video
Duration : 5 min 13 s
Bit rate : 1 904 kb/s
Width : 1 280 pixels
Height : 720 pixels
Display aspect ratio : 16:9
Frame rate mode : Constant
Frame rate : 30.000 FPS
Color space : YUV
Chroma subsampling : 4:2:0
Bit depth : 8 bits
Scan type : Progressive
Bits/(Pixel*Frame) : 0.069
Stream size : 71.0 MiB (95%)
Forced : No

Audio
ID : 2
Format : AAC LC
Format/Info : Advanced Audio
Codec ID : A_AAC-2
Duration : 5 min 13 s
Bit rate : 93.6 kb/s
Channel(s) : 2 channels
Channel layout : L R
Sampling rate : 44.1 kHz
Frame rate : 43.066 FPS (1024 SPF)
Compression mode : Lossy
Delay relative to video : -23 ms
Stream size : 3.50 MiB (5%)
Default : Yes
Forced : No

Complete name : Tokyo.Joshi.Pro.2021.01.31.02.Up.Up.Girls.Live.720p.WEB.h264-LATE.mkv
Format : Matroska
Format version : Version 4
File size : 86.1 MiB
Duration : 6 min 1 s
Overall bit rate : 2 001 kb/s

Video
ID : 1
Format : AVC
Format/Info : Advanced Video
Duration : 6 min 1 s
Bit rate : 1 904 kb/s
Width : 1 280 pixels
Height : 720 pixels
Display aspect ratio : 16:9
Frame rate mode : Constant
Frame rate : 30.000 FPS
Color space : YUV
Chroma subsampling : 4:2:0
Bit depth : 8 bits
Scan type : Progressive
Bits/(Pixel*Frame) : 0.069
Stream size : 82.0 MiB (95%)
Forced : No

Audio
ID : 2
Format : AAC LC
Format/Info : Advanced Audio
Codec ID : A_AAC-2
Duration : 6 min 1 s
Bit rate : 93.6 kb/s
Channel(s) : 2 channels
Channel layout : L R
Sampling rate : 44.1 kHz
Frame rate : 43.066 FPS
Compression mode : Lossy
Delay relative to video : -23 ms
Stream size : 4.03 MiB (5%)
Default : Yes
Forced : No

 

 

https://dx-tv.com/

You May Also Like

Leave a Reply

Your email address will not be published. Required fields are marked *

This site uses Akismet to reduce spam. Learn how your comment data is processed.