Watch TJPW Yes Wonderland 2019 05 03 Tokyo Korakuen Hall full show free mp4

 

 

 

 


 

 

dx-tv.com

 

 

 

 

Complete name : 2019.05.03.TJPW.Yes.Wonderland.2019.Tokyo.Korakuen.Hall.(DDT.Universe).mp4
Format : MPEG-4
Format profile : Base Media
Codec ID : isom (isom/iso2/avc1/mp41)
File size : 3.05 GiB
Duration : 2 h 55 min
Overall bit rate : 2 489 kb/s
Writing application : Lavf57.84.100

Video
ID : 1
Format : AVC
Format/Info : Advanced Video Codec
Format settings, Reference : 4 frames
Codec ID : avc1
Codec ID/Info : Advanced Video Coding
Duration : 2 h 55 min
Bit rate : 2 348 kb/s
Width : 1 280 pixels
Height : 720 pixels
Display aspect ratio : 16:9
Frame rate mode : Constant
Frame rate : 60.000 FPS
Color space : YUV
Chroma subsampling : 4:2:0
Bit depth : 8 bits
Scan type : Progressive
Bits/(Pixel*Frame) : 0.042
Stream size : 2.87 GiB (94%)
Codec configuration box : avcC

Audio
ID : 2
Format : AAC LC
Format/Info : Advanced Audio Codec Low Complexity
Codec ID : mp4a-40-2
Duration : 2 h 55 min
Bit rate mode : Constant
Bit rate : 128 kb/s
Channel(s) : 2 channels
Channel layout : L R
Sampling rate : 44.1 kHz
Frame rate : 43.066 FPS (1024 SPF)
Compression mode : Lossy
Stream size : 160 MiB (5%)
Title : simple_aac_recording
Default : Yes
Alternate group : 1

 

 

 

 

 


 

 

Watch TJPW Yes Wonderland 2019 05 03 Tokyo Korakuen Hall full show free mp4

 

 

 

 

Watch online

 

 

Waiting finish converting video

 

 

Server 1

 

 

 

 

 


 

 


 


 

 

Uploaded By Site DX-TV.com

 

 

 

open rar file to see this password

 

 

 

 

The password : DX-TV.com

 

 

 

 

Uploaded.net + rapidgator.net + katfile.com + bitster.cz

 

 

 

 


 

https://shrt10.com/34zcW

https://shrt10.com/UB5HD5c

https://shrt10.com/md1px

https://shrt10.com/5gDsd
 

 

Watch TJPW Yes Wonderland 2019 05 03 Tokyo Korakuen Hall full show free mp4