Watch TJPW Online Replay 2021 04 17 Samurai TV

Watch TJPW Online Replay 2021 04 17 Samurai TV DX-TV

Watch TJPW Online Replay

 Watch TJPW Online Replay

 

 

 

Download Links with High Speed


 

Dopapk

 

 

Show Links

 

http://shrt10.com/nVixAHFY

 

[collapse]

 

 

Nitroflare

 

 

Show Links

 

http://shrt10.com/BoXXMhiwi

 

[collapse]

 

 

Rapidgator

 

 

Show Links

 

http://shrt10.com/CDDuT

 

[collapse]

 

 

Uploaded

 

 

Show Links

 

http://shrt10.com/a4lzAh

 

[collapse]

 

 

Watch online

 

Server 1

 

 

 

 

Watch TJPW Online Replay

 

 

 

 

Server-2

 

 

 

 

watch now

 

 

 

|Server-3

 

 

 

 

watch now

 

 

Uploaded By Site DX-TV.com

 

 

Show Info This Show

 

 

Complete name : 2021.04.17.TJPW.(Samurai.TV).mp4
Format : MPEG-4
Format profile : Base Media
Codec ID : isom
File size : 3.08 GiB
Duration : 2 h 40 min
Overall bit rate : 2 741 kb/s

Watch TJPW Online Replay

Video
ID : 1
Format : AVC
Duration : 2 h 40 min
Bit rate : 2 536 kb/s
Width : 1 280 pixels
Height : 720 pixels
Display aspect ratio : 16:9
Frame rate mode : Constant
Frame rate : 60.000 FPS
Color space : YUV
Chroma subsampling : 4:2:0
Bit depth : 8 bits
Scan type : Progressive
Bits/(Pixel*Frame) : 0.046
Stream size : 2.85 GiB (93%)
Color primaries : BT.709
Transfer characteristics : BT.709
Matrix coefficients : BT.709
Codec configuration box : avcC

Audio
ID : 2
Format : AAC LC
Codec ID : mp4a-40-2
Duration : 2 h 40 min
Bit rate mode : Constant
Bit rate : 192 kb/s
Channel(s) : 2 channels
Channel layout : L R
Sampling rate : 48.0 kHz
Frame rate : 46.875 FPS
Compression mode : Lossy
Stream size : 221 MiB (7%)
Default : Yes
Alternate group : 1

Watch TJPW Online

Audio
ID : 2
Format : AAC LC
Codec ID : mp4a-40-2
Duration : 2 h 40 min
Bit rate mode : Constant
Bit rate : 192 kb/s
Channel(s) : 2 channels
Channel layout : L R
Sampling rate : 48.0 kHz
Frame rate : 46.875 FPS
Compression mode : Lossy
Stream size : 221 MiB (7%)
Default : Yes
Alternate group : 1

Audio
ID : 2
Format : AAC LC
Codec ID : mp4a-40-2
Duration : 2 h 40 min
Bit rate mode : Constant
Bit rate : 192 kb/s
Channel(s) : 2 channels
Channel layout : L R
Sampling rate : 48.0 kHz
Frame rate : 46.875 FPS
Compression mode : Lossy
Stream size : 221 MiB (7%)
Default : Yes
Alternate group : 1

Watch TJPW Online

Audio
ID : 2
Format : AAC LC
Codec ID : mp4a-40-2
Duration : 2 h 40 min
Bit rate mode : Constant
Bit rate : 192 kb/s
Channel(s) : 2 channels
Channel layout : L R
Sampling rate : 48.0 kHz
Frame rate : 46.875 FPS
Compression mode : Lossy
Stream size : 221 MiB (7%)
Default : Yes
Alternate group : 1

Watch TJPW Online

 

[collapse]

 

 

https://dx-tv.com/