Watch The Ultimate Fighter S28E07 720p WEB DL BOOP

Watch The Ultimate Fighter S28E07 720p WEB DL BOOP

 

 

 

 


 

 

 

dx-tv.com

 

 

 

 

 

Complete name : The.Ultimate.Fighter.S28E07.720p.FOX.WEB-DL.AAC2.0.H.264-BOOP.mkv
Format : Matroska
Format version : Version 4
File size : 1.06 GiB
Duration : 43 min 7 s
Overall bit rate : 3 503 kb/s

Video
ID : 1
Format : AVC
Format/Info : Advanced Video Codec
Codec ID : V_MPEG4/ISO/AVC
Duration : 43 min 7 s
Bit rate mode : Constant
Bit rate : 3 372 kb/s
Width : 1 280 pixels
Height : 720 pixels
Display aspect ratio : 16:9
Frame rate mode : Constant
Frame rate : 29.970
Color space : YUV
Chroma subsampling : 4:2:0
Bit depth : 8 bits
Scan type : Progressive
Bits/(Pixel*Frame) : 0.122
Stream size : 1.02 GiB (96%)
Language : English
Default : Yes
Forced : No

Audio
ID : 2
Format : AAC
Format/Info : Advanced Audio Codec
Format profile : LC
Codec ID : A_AAC-2
Duration : 43 min 7 s
Bit rate : 125 kb/s
Channel(s) : 2 channels
Channel positions : Front: L R
Sampling rate : 48.0 kHz
Frame rate : 46.875 FPS (1024 SPF)
Compression mode : Lossy
Stream size : 38.7 MiB (4%)
Language : English
 

Watch The Ultimate Fighter S28E07 720p WEB DL BOOP

 

 

 

 

Watch online

 

 

Waiting finish converting video

 

 

Server 1

 

 

 

 

 

 

 

 

 

 

 

 

Server 2

 

 

 

 

 

 

 

 

 

 

 

 

 

Uploaded By Site DX-TV.com

 

 

 

open rar file to see this password

 

 

 

 

The password : DX-TV.com

 

 

 

 

Uploaded.net + rapidgator.net

 

 

 

 

 

http://shrt10.com/AyxHjAa

 

 

 

 

 
http://shrt10.com/V5xeh
 

 

 

 

 

 

Watch The Ultimate Fighter S28E07 720p WEB DL BOOP