Watch Synergys 3rd Birthday 2020 209 26 Free Online

Synergys 3rd Birthday 2020 209 26 Free OnlineDX-TV

 

Synergys 3rd Birthday

 

 

 Synergys 3rd Birthday

 

Watch Synergys 3rd Birthday 2020 209 26 Free Online

 

 

 

[su_expand more_text=”Show More Info” less_text=”Close all Info” height=”30″ text_color=”#000000″ link_color=”#e25f8b” link_style=”button” more_icon=”icon: arrow-down” less_icon=”icon: arrow-up”]

 

Complete name : Synergy Pro Wrestling Synergys 3rd Birthday 2020 209 26 720p WEB DX-TV.com.mp4
Format : MPEG-4
Format profile : Base Media
Codec ID : isom
File size : 3.62 GiB
Duration : 2 h 55 min
Overall bit rate mode : Variable
Overall bit rate : 2 954 kb/s
Movie name : index
Writing application : Lavf57.48.100

Synergys 3rd Birthday

Video
ID : 1
Format : AVC
Codec ID/Info : Advanced
Duration : 2 h 55 min
Bit rate : 2 683 kb/s
Width : 1 280 pixels
Height : 720 pixels
Display aspect ratio : 16:9
Frame rate mode : Variable
Frame rate : 29.970 (29970/1000) FPS 
Color space : YUV
Chroma subsampling : 4:2:0
Bit depth : 8 bits
Scan type : Progressive
Bits/(Pixel*Frame) : 0.097
Stream size : 3.29 GiB (91%)
Codec configuration box : avcC

Synergys 3rd Birthday

Audio
ID : 2
Format : AAC LC
Format/Info : Advanced Audio
Codec ID : mp4a-40-2
Duration : 2 h 55 min
Bit rate mode : Variable
Bit rate : 265 kb/s
Channel(s) : 2 channels
Channel layout : L R
Sampling rate : 48.0 kHz
Frame rate : 46.875 FPS (1024 SPF)
Compression mode : Lossy
Stream size : 329 MiB (9%)
Default : Yes
Alternate group : 1

 

Synergys 3rd Birthday

Tony Deppen channeled his inner “Eddie” and lied, cheated and stole his way to the 2020 Garden State Invitational Trophy, defeating Gregory Iron, KTB and Jordan Oliver on his way to the win. It was Oliver, however, who captured the hearts of the Synergy Family that night. Jordan and Injustice stable-mate Myron Reed put on a 20 minute, breathtaking 1st round contest you must see to believe. Nursing a heavily-taped shoulder, Jordan battled through 2019 GSI winner Anthony Greene before an epic final contest with Deppen. It was a tremendous performance by the young workhorse of Synergy.

Synergys 3rd Birthday

Frightmare vanquished an old foe in Desean Pratt to retain his Synergy Pro Wrestling Championship – though it certainly was no easy task.

And the first Cruiserweight Crown Champion should have been a popular choice – but fans were left a bit puzzled by how TJ Crawford went about defeating Ellis Taylor to claim the crown. Was the finishing moment of this match truly necessary? Is Crawford proud of his actions? Will Ellis Taylor have anything to say, and what did #1 Contender Kasey Catal think of it all?

 

Watch Synergys 3rd Birthday 2020 209 26 Free Online

 

 

[/su_expand]

 

 

 

Watch online

 

 

[su_expand more_text=”Open Videos Online” less_text=”Close Videos” height=”0″ text_color=”#0859fe” link_color=”#a74a69″ link_style=”button” more_icon=”icon: play” less_icon=”icon: stop”]

 

 

Server 1

 

 

 

 

watch now

 

 

 

 

Server-2

 

 

 

Synergys 3rd Birthday

 

 

 

 

Server-3

 

 

 

watch now

 

 

 

[/su_expand]
 

 

Uploaded By Site DX-TV.com

 

 

 

 

 

Download Free Links with normal and high Speed [ more 14 hosts ]  

 

[su_expand more_text=”Show Hosts Info” less_text=”Close all Info” height=”30″ text_color=”#000000″ link_color=”#e25f8b” link_style=”button” more_icon=”icon: arrow-down” less_icon=”icon: arrow-up”]

 

Synergys 3rd Birthday

 

hexupload.net – clicknupload.co – www.multiup.org – uptobox.com – anonfiles.com – userscloud.com –

dropapk.to alfafile.net – ddownload.com – rockfile.co – 1fichier.com – filedown.org – katfile.com – filerio.in

 

 

 

[/su_expand]

 

http://shrt10.com/z8ttz
http://shrt10.com/bwj7iUb
http://shrt10.com/y8OOr5
http://shrt10.com/Cv1xHVqA
http://shrt10.com/JjlBf
http://shrt10.com/O2Hkg
http://shrt10.com/ASv4IAq
http://shrt10.com/gEIbcWri
http://shrt10.com/qskbr
http://shrt10.com/3H5NM

 

 

 

 

Download Links with premium High Speed   

 

 

[su_expand more_text=”Open Download Links” less_text=”Close all Links” height=”0″ text_color=”#4b9a3e” link_color=”#1b3fa8″ link_style=”button” more_icon=”icon: link” less_icon=”icon: unlink”]
 

 

 

nitroflare.com

 

 

 

rapidgator.net

 

 

 

uploaded.net

 

 

 

uploadgig.com

 

 

[/su_expand]
dx-tv.com

 

urlfree.net

Leave a Reply

Your email address will not be published. Required fields are marked *

This site uses Akismet to reduce spam. Learn how your comment data is processed.