Watch Straight Up Steve Austin S01E05

Watch Straight Up Steve Austin S01E05 1080p DX-TV

 

 

 

 

 

 

 

 

dx-tv.com

 

 

 

Watch Straight Up Steve Austin S01E05

 

 

 

 

 

Complete name : Straight.Up.Steve.Austin.S01E05.1080p.WEB.x264-TBS.mkv
Format : Matroska
Format version : Version 4
File size : 606 MiB
Duration : 21 min 35 s
Overall bit rate : 3 926 kb/s
Video
ID : 1
Format : AVC
Duration : 21 min 34 s
Bit rate : 3 828 kb/s
Nominal bit rate : 4 200 kb/s
Width : 1 920 pixels
Height : 1 080 pixels
Display aspect ratio : 16:9
Frame rate mode : Constant
Frame rate : 23.976 (24000/1001) FPS
Color space : YUV
Chroma subsampling : 4:2:0
Bit depth : 8 bits
Scan type : Progressive
Bits/(Pixel*Frame) : 0.077
Stream size : 591 MiB (98%)
Writing library : x264 core 152

Audio
ID : 2
Format : AAC LC
Format/Info : Advanced Audio Codec Low Complexity
Codec ID : A_AAC-2
Duration : 21 min 34 s
Bit rate : 96.0 kb/s
Channel(s) : 2 channels
Channel layout : L R
Sampling rate : 44.1 kHz
Frame rate : 43.066 FPS (1024 SPF)
Compression mode : Lossy
Delay relative to video : -42 ms
Stream size : 14.8 MiB (2%)
Default : Yes
Forced : No

 

 

 

 

 

 

Watch online

 

 

Waiting finish converting video

 

 

Server 1

 

 

 

 

 

 

 

 

 

 

 

 

 

Server 2

 

 

 

 

 

 

 

 

 

 

 

 

 

 

 

Uploaded By Site DX-TV.com

 

 

 

https://shrt10.com
https://shrt10.com

 

 

 


 

 

 

 

 

Watch Straight Up Steve Austin S01E05

 

 

 

 

 


 

 

 

bitster.cz

 

 

 

multiup.org

 

 

 

nitroflare.com

 

 

 

rapidgator.net

 

 

 

uploaded.net

 

 

 

uploadgig.com

 

 

 

 

 

 

Leave a Reply

Your email address will not be published. Required fields are marked *

WhatsApp chat
%d bloggers like this: