Watch Starrcast IV 2019 11 09 World Championship Women

Watch Starrcast IV 2019 11 09 World Championship Women 720p DX-TV

 

 

 

 

 

 

dx-tv.com

 

 

 

 

Watch Starrcast IV 2019 11 09 World Championship Women

 

 

 

 

 

Complete name : Starrcast.IV.2019.11.09.World.Championship.Women.720p.WEB.h264-iNDYHEEL.mp4
Format : MPEG-4
Format profile : Base Media
Codec ID : isom (isom/iso2/avc1/mp41)
File size : 1.38 GiB
Duration : 1 h 35 min
Overall bit rate mode : Variable
Overall bit rate : 2 084 kb/s
Writing application : Lavf58.32.104

Video
ID : 1
Format : AVC
Duration : 1 h 35 min
Bit rate : 1 977 kb/s
Width : 1 280 pixels
Height : 720 pixels
Display aspect ratio : 16:9
Frame rate mode : Variable
Frame rate : 30.000 FPS
Minimum frame rate : 4.274 FPS
Maximum frame rate : 30.303 FPS
Color space : YUV
Chroma subsampling : 4:2:0
Bit depth : 8 bits
Scan type : Progressive
Bits/(Pixel*Frame) : 0.072
Stream size : 1.31 GiB (95%)
Codec configuration box : avcC

Audio
ID : 2
Format : AAC LC
Format/Info : Advanced Audio Codec Low Complexity
Codec ID : mp4a-40-2
Duration : 1 h 35 min
Bit rate mode : Variable
Bit rate : 96.0 kb/s
Maximum bit rate : 106 kb/s
Channel(s) : 2 channels
Channel layout : L R
Sampling rate : 48.0 kHz
Frame rate : 46.875 FPS (1024 SPF)
Compression mode : Lossy
Stream size : 65.8 MiB (5%)
Default : Yes
Alternate group : 1

 

 

 

 

 

 

Watch online

 

 

Waiting finish converting video

 

 

Server 1

 

 

 

 

 

 

 

 

 

 

 

 

 

Server 2

 

 

 

 

 

 


 

 

 

 

 

 

 

Uploaded By Site DX-TV.com

 

 

 

 

 

Watch Starrcast IV 2019 11 09 World Championship Women

 

 

 

 

 

 

Recommended For Free

 

 

 

 

earn4files.com

 

 

 

 

 

 

clicknupload.org

 

 

 

 

 

Download with high speed with Premium account

 

 

 

 

nitroflare.com

 

 

 

rapidgator.net

 

 

 

uploaded.net

 

 

 

 

 

Leave a Reply

Your email address will not be published. Required fields are marked *

This site uses Akismet to reduce spam. Learn how your comment data is processed.