Watch Starrcast 2018 Day 4 1080p WEB iNDYHEEL

Watch Starrcast 2018 Day 4 1080p WEB iNDYHEEL

 

 

 

 


 

 

 

dx-tv.com

 

 

 

 

 

 

Complete name : Starrcast.2018.Day.4.1080p.WEB.h264-iNDYHEELL.mp4
Format : MPEG-4
Format profile : Base Media
Codec ID : isom (isom)
File size : 7.90 GiB
Duration : 4 h min 9 s
Overall bit rate mode : Variable
Overall bit rate : 4 010 kb/s
Encoded date : UTC 2018-09-02 23:29:24
Tagged date : UTC 2018-09-02 23:29:24

Video
ID : 1
Format : AVC
Format/Info : Advanced Video Codec
Codec ID : avc1
Codec ID/Info : Advanced Video Coding
Duration : 4 h min 9 s
Source duration : 4 h min 9 s
Bit rate : 3 876 kb/s
Maximum bit rate : 8 672 kb/s
Width : 1 920 pixels
Height : 1 080 pixels
Display aspect ratio : 16:9
Frame rate mode : Variable
Frame rate : 29.889 FPS
Minimum frame rate : 10.000 FPS
Maximum frame rate : 90 000.000 FPS
Color space : YUV
Chroma subsampling : 4:2:0
Bit depth : 8 bits
Scan type : Progressive
Bits/(Pixel*Frame) : 0.063
Stream size : 1.30 GiB (97%)
Source stream size : 1.30 GiB (97%)
Writing library : x264 core 152

Audio
ID : 2
Format : AAC
Format/Info : Advanced Audio Codec
Format profile : LC
Codec ID : mp4a-40-2
Duration : 4 h min 9 s
Source duration : 4 h min 9 s
Bit rate mode : Variable
Bit rate : 129 kb/s
Maximum bit rate : 546 kb/s
Channel(s) : 2 channels
Channel positions : Front: L R
Sampling rate : 48.0 kHz
Frame rate : 46.875 FPS
Compression mode : Lossy
Stream size : 44.4 MiB (3%)
Source stream size : 44.4 MiB (3%)
Default : Yes
Alternate group : 1

 

 

 

 

 

 

Watch Starrcast 2018 Day 4 1080p WEB iNDYHEEL

 

 

 

 

Watch online

 

 

Waiting finish converting video

 

 

Server 1

 

 

 

 


 


 


 


 

 

 

 

 

 

 

 

 

Server 2

 

 

 

 

 

 

 

 


 

 

 

 

 

 

 

 

 

 

 

 

Uploaded By Site DX-TV.com

 

 

 

open rar file to see this password

 

 

 

 

The password : DX-TV.com

 

 

 

 

 

 

Uploaded.net + rapidgator.net

 

 

 

 

 

http://shrt10.com/nNzETj
 

 

 

http://shrt10.com/peVxs
 

 

 

http://shrt10.com/ulYyu5Rz

 

 

 
http://shrt10.com/Cc6K2
 

 

 

 

 

 

 

 

Watch Starrcast 2018 Day 4 1080p WEB iNDYHEEL