Watch Starrcast 2018 Day 3 480p WEBRip iNDYHEEL mp4

Watch Starrcast 2018 Day 3 480p WEBRip iNDYHEEL mp4

 

 

 

 


 

dx-tv.com

 

 

 

 

 

Complete name : Starrcast.2018.Day.3.480p.WEBRip.h264-iNDYHEEL.mp4
Format : MPEG-4
Format profile : Base Media
File size : 3.30 GB
Duration : 6 h 35 min
Overall bit rate : 897 kb/s
Writing application : Lavf58.2.103

Video
ID : 1
Format : AVC
Format/Info : Advanced Video Codec
Codec ID/Info : Advanced Video Coding
Duration : 6 h 35 min
Bit rate : 763 kb/s
Width : 854 pixels
Height : 480 pixels
Display aspect ratio : 16:9
Frame rate mode : Variable
Frame rate : 29.754 FPS
Minimum frame rate : 29.259 FPS
Maximum frame rate : 30.141 FPS
Color space : YUV
Chroma subsampling : 4:2:0
Bit depth : 8 bits
Scan type : Progressive
Bits/(Pixel*Frame) : 0.063
Stream size : 519 MiB (85%)
Color range : Limited
Color primaries : BT.709
Transfer characteristics : BT.709
Matrix coefficients : BT.709

Audio
ID : 2
Format : AAC
Format/Info : Advanced Audio Codec
Format profile : LC
Codec ID : mp4a-40-2
Duration : 1 h 35 min
Bit rate mode : Constant
Bit rate : 126 kb/s
Channel(s) : 2 channels
Channel positions : Front: L R
Sampling rate : 44.1 kHz
Frame rate : 43.066 FPS
Compression mode : Lossy
Stream size : 85.4 MiB (14%)
Default : Yes
Alternate group : 1

 

 

 

 

 

Watch Starrcast 2018 Day 3 480p WEBRip iNDYHEEL mp4

 

 

 

 

Watch online

 

 

Waiting finish converting video

 

 

Server 1

 

 

 

 

 


 

 


 

 

 

 

 

 

 

 

 

 

 

 

 

 

 

 

 

 

 

 

 

 

 

 

Server 2

 

 

 

 

 

 

 

 

 

 

 

 

 

 

 

 

 

 

 

 

 

 

 

 

 

 

 

 

 

 

 

 

 

 

 

 

 

 

 

 

 

 

 

 

 

 

Uploaded By Site DX-TV.com

 

 

 

open rar file to see this password

 

 

 

 

The password : DX-TV.com

 

 

 

 

 

 

Uploaded.net + rapidgator.net

 

 

 

 

 

 

http://shrt10.com/A4L9IiAh

 

 

 

 

 

http://shrt10.com/163G

 

 

 

 

 

 

 

 

 

Watch Starrcast 2018 Day 3 480p WEBRip iNDYHEEL mp4

Leave a Reply

This site uses Akismet to reduce spam. Learn how your comment data is processed.

Support HVIPS

Please Disable Ad-Block To View This site. just help us to continue this work