Starrcast 2018 Day 3 1080p WEB iNDYHEEL mp4

Starrcast 2018 Day 3 1080p WEB iNDYHEEL mp4

 

 

 

 


 

 

dx-tv.com

 

 

 

 
Complete name : Starrcast.2018.Day.3.1080p.WEB.h264-iNDYHEEL.mp4
Format : MPEG-4
Format profile : Base Media
Codec ID : isom (isom)
File size : 2.51 GiB
Duration : 1 h 35 min
Overall bit rate mode : Variable
Overall bit rate : 3 775 kb/s
Encoded date : UTC 2018-09-02 15:13:01
Tagged date : UTC 2018-09-02 15:13:01

Video
ID : 1
Format : AVC
Format/Info : Advanced Video Codec
Codec ID/Info : Advanced Video Coding
Duration : 1 h 35 min
Source duration : 1 h 35 min
Bit rate : 3 640 kb/s
Maximum bit rate : 7 146 kb/s
Width : 1 920 pixels
Height : 1 080 pixels
Display aspect ratio : 16:9
Frame rate mode : Variable
Frame rate : 29.754 FPS
Minimum frame rate : 7.463 FPS
Maximum frame rate : 90 000.000 FPS
Color space : YUV
Chroma subsampling : 4:2:0
Bit depth : 8 bits
Scan type : Progressive
Bits/(Pixel*Frame) : 0.059
Stream size : 2.42 GiB (96%)
Source stream size : 2.42 GiB (96%)

Audio
ID : 2
Format : AAC
Format/Info : Advanced Audio Codec
Format profile : LC
Codec ID : mp4a-40-2
Duration : 1 h 35 min
Source duration : 1 h 35 min
Bit rate mode : Variable
Bit rate : 128 kb/s
Maximum bit rate : 159 kb/s
Channel(s) : 2 channels
Channel positions : Front: L R
Sampling rate : 44.1 kHz
Frame rate : 43.066 FPS
Compression mode : Lossy
Stream size : 87.3 MiB (3%)
Source stream size : 87.3 MiB (3%)
Default : Yes
Alternate group : 1

 

 

 

 

 

Starrcast 2018 Day 3 1080p WEB iNDYHEEL mp4

 

 

 

 

 

Uploaded By Site DX-TV.com

 

 

 

open rar file to see this password

 

 

 

 

The password : DX-TV.com

 

 

 

 

 

 

Uploaded.net + rapidgator.net

 

 

 

 

 

 
http://shrt10.com/9nwab
 

 

 

 
http://shrt10.com/9U34k
 

 

 

 
http://shrt10.com/CjDA4
 

 

 

 
http://shrt10.com/KHQMq0f
 

 

 

 
http://shrt10.com/Yodolp
 

 

 

 
http://shrt10.com/sLk6rI2
 

 

 

 
http://shrt10.com/OzN0Um
 

 

 

 
http://shrt10.com/savrC1
 

 

 

 

 

 

 

 

 

 Starrcast 2018 Day 3 1080p WEB iNDYHEEL mp4

Tags: , , , , , , , ,

Leave a Reply

This site uses Akismet to reduce spam. Learn how your comment data is processed.

Support HVIPS

Please Disable Ad-Block To View This site. just help us to continue this work