Watch Stardom Sendai Cinderella 2020 11 15 Free DX-TV

Watch Stardom Sendai Cinderella 2020 11 15 720p Free DX-TV

Stardom Sendai Cinderella

 

 Stardom Sendai Cinderella

 

[su_expand more_text=”Show More Info” less_text=”Close all Info” height=”30″ text_color=”#000000″ link_color=”#e25f8b” link_style=”button” more_icon=”icon: arrow-down” less_icon=”icon: arrow-up”]

Complete name : 2020.11.15.Stardom.Sendai.Cinderella.720p.mp4
Format : MPEG-4
Format profile : Base Media
Codec ID : isom
File size : 2.38 GiB
Duration : 2 h 40 min
Overall bit rate mode : Variable
Overall bit rate : 2 125 kb/s

Stardom Sendai Cinderella

Video
ID : 1
Format : AVC
Duration : 2 h 40 min
Bit rate : 1 994 kb/s
Maximum bit rate : 5 067 kb/s
Width : 1 280 pixels
Height : 720 pixels
Display aspect ratio : 16:9
Frame rate mode : Constant
Frame rate : 29.970 FPS
Color space : YUV
Chroma subsampling : 4:2:0
Bit depth : 8 bits
Scan type : Progressive
Bits/(Pixel*Frame) : 0.072
Stream size : 2.24 GiB (94%)
Codec configuration box : avc

Stardom Sendai Cinderella

Audio
ID : 2
Format : AAC LC
Format/Info : Advanced Audio
Codec ID : mp4a-40-2
Duration : 2 h 40 min
Bit rate mode : Variable
Bit rate : 128 kb/s
Maximum bit rate : 150 kb/s
Channel(s) : 2 channels
Channel layout : L R
Sampling rate : 48.0 kHz
Frame rate : 46.875 FPS (1024 SPF)
Compression mode : Lossy
Stream size : 147 MiB (6%)
Language : English

 

A now familiar matchup kicks us off in Korakuen Hall.

Yota Tsuji is still trying to defuse the certified match ender that is Kojima’s lariat,

and came very close Saturday night in Fujisawa with an intricate pinning counter,

but it stillw asn’t enough. Will he come closer tonight? 

 

[/su_expand]
 

Watch online Stardom Sendai Cinderella

 

Server 1

 

 

 

 

Stardom Sendai Cinderella

 

 

 

 

Server-2

 

 

 

 

watch now

 

 

 

 

Uploaded By Site DX-TV.com

 

Download Free Links with normal and high Speed [ more 14 hosts ]  

Stardom Sendai Cinderella

[su_expand more_text=”Show Hosts Info” less_text=”Close all Info” height=”30″ text_color=”#000000″ link_color=”#e25f8b” link_style=”button” more_icon=”icon: arrow-down” less_icon=”icon: arrow-up”]

 

 

 

[/su_expand]

 

http://shrt10.com/yW3qq8s

http://shrt10.com/8k8awR8
http://shrt10.com/t9cHU
http://shrt10.com/IZ9HJA4Kf
http://shrt10.com/jydWma8C
http://shrt10.com/rHhEdOE2D

Download Links with premium High Speed   

 

 

 

 

dropapk.to

 

 

 

nitroflare.com

 

 

 

rapidgator.net

 

 

 

uploaded.net

 

 

 

uploadgig.com

 

 

https://dx-tv.com/ufc-255-free-online-early-prelims-720p-1080p/

Leave a Reply

Your email address will not be published. Required fields are marked *

This site uses Akismet to reduce spam. Learn how your comment data is processed.