Watch Stardom Online Free 2021 05 15 Nagoya Two Days

Watch Stardom Online Free 2021 05 15 Nagoya Two Days Day 1 1080p DX-TV

Watch Stardom Online Free

 Watch Stardom Online Free

 

 

 

Download Links with High Speed


Dopapk

 

 

Show Links

 

http://shrt10.com/i9CrDEq

 

[collapse]

 

 

Nitroflare

 

 

Show Links

 

http://shrt10.com/2mkX6EW9

 

[collapse]

 

 

Rapidgator

 

 

Show Links

 

http://shrt10.com/5Glb4v

 

[collapse]

 

 

Uploaded

 

 

Show Links

 

http://shrt10.com/8AkNMdOML

 

[collapse]

 

 

Watch online

 

Server 1

 

 

 

 

Watch Stardom Online Free

 

 

 

 

Server-2

 

 

 

 

watch now

 

 

 

|Server-3

 

 

 

 

watch now

 

 

Uploaded By Site DX-TV.com

 

 

Show Info This Show

 

 

Complete name : Stardom.2021.05.15.Nagoya.Two.Days.Day.1.1080p.WEB.h264-NCMP.mp4
Format : MPEG-4
Format profile : Base Media
Codec ID : isom
File size : 2.85 GiB
Duration : 1 h 54 min
Overall bit rate : 3 572 kb/s

Watch Stardom Online Free

Video
ID : 1
Format : AVC
Format/Info : Advanced Video
Duration : 1 h 54 min
Bit rate : 3 500 kb/s
Width : 1 920 pixels
Height : 1 080 pixels
Display aspect ratio : 16:9
Frame rate mode : Constant
Frame rate : 29.970 (30000/1001) FPS
Color space : YUV
Chroma subsampling : 4:2:0
Bit depth : 8 bits
Scan type : Progressive
Bits/(Pixel*Frame) : 0.056
Stream size : 2.79 GiB (98%)
Codec configuration box : avcC

Audio
ID : 2
Format : AAC LC
Format/Info : Advanced Audio
Codec ID : mp4a-40-2
Duration : 1 h 54 min
Bit rate mode : Constant
Bit rate : 64.0 kb/s
Channel(s) : 2 channels
Channel layout : L R
Sampling rate : 48.0 kHz
Frame rate : 46.875 FPS (1024 SPF)
Compression mode : Lossy
Stream size : 52.2 MiB (2%)
Default : Yes
Alternate group : 1

Stardom Online Free

Audio
ID : 2
Format : AAC LC
Format/Info : Advanced Audio
Codec ID : mp4a-40-2
Duration : 1 h 54 min
Bit rate mode : Constant
Bit rate : 64.0 kb/s
Channel(s) : 2 channels
Channel layout : L R
Sampling rate : 48.0 kHz
Frame rate : 46.875 FPS (1024 SPF)
Compression mode : Lossy
Stream size : 52.2 MiB (2%)
Default : Yes
Alternate group : 1

 

Audio
ID : 2
Format : AAC LC
Format/Info : Advanced Audio
Codec ID : mp4a-40-2
Duration : 1 h 54 min
Bit rate mode : Constant
Bit rate : 64.0 kb/s
Channel(s) : 2 channels
Channel layout : L R
Sampling rate : 48.0 kHz
Frame rate : 46.875 FPS (1024 SPF)
Compression mode : Lossy
Stream size : 52.2 MiB (2%)
Default : Yes
Alternate group : 1

Stardom Online Free

Audio
ID : 2
Format : AAC LC
Format/Info : Advanced Audio
Codec ID : mp4a-40-2
Duration : 1 h 54 min
Bit rate mode : Constant
Bit rate : 64.0 kb/s
Channel(s) : 2 channels
Channel layout : L R
Sampling rate : 48.0 kHz
Frame rate : 46.875 FPS (1024 SPF)
Compression mode : Lossy
Stream size : 52.2 MiB (2%)
Default : Yes
Alternate group : 1

Stardom Online Free

Audio
ID : 2
Format : AAC LC
Format/Info : Advanced Audio
Codec ID : mp4a-40-2
Duration : 1 h 54 min
Bit rate mode : Constant
Bit rate : 64.0 kb/s
Channel(s) : 2 channels
Channel layout : L R
Sampling rate : 48.0 kHz
Frame rate : 46.875 FPS (1024 SPF)
Compression mode : Lossy
Stream size : 52.2 MiB (2%)
Default : Yes
Alternate group : 1

 

 

[collapse]

 

 

https://dx-tv.com/

Leave a Reply

Your email address will not be published. Required fields are marked *

This site uses Akismet to reduce spam. Learn how your comment data is processed.