Watch Stardom New Century 2021 03 21 In Sendai 1080p

Watch Stardom New Century 2021 03 21 In Sendai 1080p DX-TV

Watch Stardom New Century 2021

 Watch Stardom New Century 2021

 

 

 

Download Links with High Speed


Dopapk

 

 

Show Links

 

 

Nitroflare

 

 

Show Links

 

http://shrt10.com/eKW4P

 

[collapse]

 

 

Rapidgator

 

 

Show Links

 

http://shrt10.com/1lmtB65M

 

[collapse]

 

 

Uploaded

 

 

Show Links

 

http://shrt10.com/RZzFVM2

 

[collapse]

 

 

Watch online

 

Server 1

 

 

 

 

watch now

 

 

 

 

Server-2

 

 

 

 

watch Stardom New Century 2021

 

 

 

|Server-3

 

 

 

 

watch now

 

 

Uploaded By Site DX-TV.com

 

 

Show Info This Show

 

 

Complete name : Stardom.2021.03.21.New.Century.2021.In Sendai.1080p.WEB.h264-NCMP.mp4
Format : MPEG-4
Format profile : Base Media
Codec ID : isom
File size : 2.56 GiB
Duration : 1 h 42 min
Overall bit rate : 3 573 kb/s

Stardom New Century 2021

Video
ID : 1
Format : AVC
Duration : 1 h 42 min
Bit rate : 3 501 kb/s
Width : 1 920 pixels
Height : 1 080 pixels
Display aspect ratio : 16:9
Frame rate mode : Constant
Frame rate : 29.970 (30000/1001) FPS
Color space : YUV
Chroma subsampling : 4:2:0
Bit depth : 8 bits
Scan type : Progressive
Bits/(Pixel*Frame) : 0.056
Stream size : 2.51 GiB (98%)
Codec configuration box : avcC

Audio
ID : 2
Format : AAC LC
Codec ID : mp4a-40-2
Duration : 1 h 42 min
Bit rate mode : Constant
Bit rate : 64.0 kb/s
Channel(s) : 2 channels
Channel layout : L R
Sampling rate : 48.0 kHz
Frame rate : 46.875 FPS (1024 SPF)
Compression mode : Lossy
Stream size : 46.9 MiB (2%)
Default : Yes
Alternate group : 1

Stardom New Century 2021

Audio
ID : 2
Format : AAC LC
Codec ID : mp4a-40-2
Duration : 1 h 42 min
Bit rate mode : Constant
Bit rate : 64.0 kb/s
Channel(s) : 2 channels
Channel layout : L R
Sampling rate : 48.0 kHz
Frame rate : 46.875 FPS (1024 SPF)
Compression mode : Lossy
Stream size : 46.9 MiB (2%)
Default : Yes
Alternate group : 1

Stardom New Century 2021

Audio
ID : 2
Format : AAC LC
Codec ID : mp4a-40-2
Duration : 1 h 42 min
Bit rate mode : Constant
Bit rate : 64.0 kb/s
Channel(s) : 2 channels
Channel layout : L R
Sampling rate : 48.0 kHz
Frame rate : 46.875 FPS (1024 SPF)
Compression mode : Lossy
Stream size : 46.9 MiB (2%)
Default : Yes
Alternate group : 1

 

Audio
ID : 2
Format : AAC LC
Codec ID : mp4a-40-2
Duration : 1 h 42 min
Bit rate mode : Constant
Bit rate : 64.0 kb/s
Channel(s) : 2 channels
Channel layout : L R
Sampling rate : 48.0 kHz
Frame rate : 46.875 FPS (1024 SPF)
Compression mode : Lossy
Stream size : 46.9 MiB (2%)
Default : Yes
Alternate group : 1

 

[collapse]

 

 

https://dx-tv.com/

2 Comments

  1. @snaw90 The upcoming BRAVE CF 49 replay in SD quality in Mystream links ? Thanks

Comments are closed.