Watch Stardom Day Show 2021 03 28 Osaka 1080p

Watch Stardom Day Show 2021 03 28 Osaka 1080p DX-TV

Watch Stardom Day Show

 Watch Stardom Day Show

 

 

 

Download Links with High Speed


 

Dopapk

 

 

Show Links

 

http://shrt10.com/bXloZS

 

[collapse]

 

 

Nitroflare

 

 

Show Links

 

http://shrt10.com/baEnB

 

[collapse]

 

 

Rapidgator

 

 

Show Links

 

http://shrt10.com/7zkm8410

 

[collapse]

 

 

Uploaded

 

 

Show Links

 

http://shrt10.com/HrZcBz

 

[collapse]

 

 

Watch Stardom Day Show online

 

Server 1

 

 

 

 

watch now

 

 

 

 

Server-2

 

 

 

 

watch now

 

 

 

|Server-3

 

 

 

 

watch Stardom Day Show

 

 

Uploaded By Site DX-TV.com

 

 

Show Info This Show

 

 

Complete name : Stardom.2021.03.28.Osaka.Day.Show.1080p.WEB.h264-NCMP.mp4
Format : MPEG-4
Format profile : Base Media
Codec ID : isom
File size : 2.62 GiB
Duration : 1 h 41 min
Overall bit rate : 3 702 kb/s

Stardom Day Show

Video
ID : 1
Format : AVC
Duration : 1 h 41 min
Bit rate : 3 502 kb/s
Width : 1 920 pixels
Height : 1 080 pixels
Display aspect ratio : 16:9
Frame rate mode : Constant
Frame rate : 29.970 (30000/1001) FPS
Color space : YUV
Chroma subsampling : 4:2:0
Bit depth : 8 bits
Scan type : Progressive
Bits/(Pixel*Frame) : 0.056
Stream size : 2.48 GiB (95%)
Codec configuration box : avcC

Audio
ID : 2
Format : AAC LC
Codec ID : mp4a-40-2
Duration : 1 h 41 min
Bit rate mode : Constant
Bit rate : 192 kb/s
Channel(s) : 2 channels
Channel layout : L R
Sampling rate : 48.0 kHz
Frame rate : 46.875 FPS (1024 SPF)
Compression mode : Lossy
Stream size : 139 MiB (5%)
Default : Yes
Alternate group : 1

Stardom Day Show

Audio
ID : 2
Format : AAC LC
Codec ID : mp4a-40-2
Duration : 1 h 41 min
Bit rate mode : Constant
Bit rate : 192 kb/s
Channel(s) : 2 channels
Channel layout : L R
Sampling rate : 48.0 kHz
Frame rate : 46.875 FPS (1024 SPF)
Compression mode : Lossy
Stream size : 139 MiB (5%)
Default : Yes
Alternate group : 1

Audio
ID : 2
Format : AAC LC
Codec ID : mp4a-40-2
Duration : 1 h 41 min
Bit rate mode : Constant
Bit rate : 192 kb/s
Channel(s) : 2 channels
Channel layout : L R
Sampling rate : 48.0 kHz
Frame rate : 46.875 FPS (1024 SPF)
Compression mode : Lossy
Stream size : 139 MiB (5%)
Default : Yes
Alternate group : 1

Stardom Day Show

 

[collapse]

 

 

https://dx-tv.com/