Watch Stardom 10th Anniversary Grand Final 2021 Replay

Watch Stardom 10th Anniversary Grand Final 2021 10 09 Osaka Dream Cinerella Replay

Watch Stardom

Watch Stardom

 

 

 

Download Links with premium High Speed
 

 


 

Dopapk

 

 

Show Links

 

 

 

 

 

 

 

Nitroflare

 

 

Show Links

 

 

http://shrt10.com/jXigmoZy4
http://shrt10.com/Y3ggS

 

 

 

 

Rapidgator

 

 

Show Links

 

 

http://shrt10.com/RbGaIXun
http://shrt10.com/LafvIOD

 

 

 

 

 

Uploaded
 

 

 

Show Links

 

 

http://shrt10.com/OqTSM
http://shrt10.com/zvgo6HURj

 

 

 

 

 

 

 

Watch online

 

Server 1

 

 

 

 

Watch

 

 

 

 

Server-2

 

 

 

 

watch now

 

 

 

|Server-3

 

 

 

 

Watch Stardom

 

 

Uploaded By Site DX-TV.com

 

 

Open Info Show

 

 

Complete name : 2021.10.09.Stardom.10Th.Anniversary.Grand.Final.Osaka.mp4
Format : MPEG-4
Format profile : Base Media / Version 2
Codec ID : mp42 (
File size : 2.04 GiB
Duration : 3 h 50 min
Overall bit rate : 1 262 kb/s

Watch Stardom

Video
ID : 1
Format : AVC
Duration : 3 h 50 min
Bit rate : 1 093 kb/s
Width : 720 pixels
Height : 480 pixels
Display aspect ratio : 16:9
Original display aspect rat : 16:9
Frame rate mode : Constant
Frame rate : 30.000 FPS
Color space : YUV
Chroma subsampling : 4:2:0
Bit depth : 8 bits
Scan type : Progressive
Bits/(Pixel*Frame) : 0.105
Stream size : 1.76 GiB (87%)
Color range : Limited
Color primaries : BT.709
Transfer characteristics : BT.709
Matrix coefficients : BT.709
Codec configuration box : avcC

Watch Stardom

Audio
ID : 2
Format : AAC LC
Codec ID : mp4a-40-2
Duration : 3 h 50 min
Bit rate mode : Constant
Bit rate : 161 kb/s
Channel(s) : 2 channels
Channel layout : L R
Sampling rate : 44.1 kHz
Frame rate : 43.066 FPS (1024 SPF)
Compression mode : Lossy
Stream size : 266 MiB (13%)
Title : Stereo
Default : Yes
Alternate group : 1

Complete name : 2021.10.09.Stardom.10th.Anniversary.Grand.Final.Osaka.Dream.Cinerella.(Samurai.TV).mp4
Format : MPEG-4
Format profile : Base Media
Codec ID : isom
File size : 4.49 GiB
Duration : 3 h 50 min
Overall bit rate : 2 783 kb/s

Watch Stardom

Video
ID : 1
Format : AVC
Duration : 3 h 50 min
Bit rate : 2 638 kb/s
Width : 1 280 pixels
Height : 720 pixels
Display aspect ratio : 16:9
Frame rate mode : Constant
Frame rate : 60.000 FPS
Color space : YUV
Chroma subsampling : 4:2:0
Bit depth : 8 bits
Scan type : Progressive
Bits/(Pixel*Frame) : 0.048
Stream size : 4.26 GiB (95%)
Color primaries : BT.709
Transfer characteristics : BT.709
Matrix coefficients : BT.709
Codec configuration box : avc

Watch Stardom

Audio
ID : 2
Format : AAC LC
Codec ID : mp4a-40-2
Duration : 3 h 50 min
Duration_LastFrame : -22 ms
Bit rate mode : Constant
Bit rate : 129 kb/s
Channel(s) : 2 channels
Channel layout : L R
Sampling rate : 44.1 kHz
Frame rate : 43.066 FPS (1024 SPF)
Compression mode : Lossy
Stream size : 213 MiB (5%)
Default : Yes
Alternate group : 1

 

 

https://dx-tv.com/

 

 

 

 

 

You May Also Like

Leave a Reply

Your email address will not be published. Required fields are marked *

This site uses Akismet to reduce spam. Learn how your comment data is processed.