Watch SmackDown Free Online 2020 10 16 WWE Full Show

SmackDown Free Online 2020 10 16 WWE Full Show DX-TV

 

Watch SmackDown Free Online

 

 Watch SmackDown Free Online

 

Watch SmackDown Free Online 2020 10 16 WWE Full Show

 

The New Day def. Shinsuke Nakamura, Cesaro & Sheamus – New Day Farewell Match

The New Day started their Farewell Match with an impassioned speech to the WWE Universe and a promise that they will remain as strong as ever. Shinsuke Nakamura, Cesaro & Sheamus tried to spoil the party with some early aggression. The trio of challengers looked for retribution after all suffering crushing defeats the week prior. An incredible combo started with Cesaro’s swing of Kingston into a Nakamura running knee that was followed up by a White Noise assist to Sheamus. After the dust settled, Big E and Woods teamed up for an earth-shattering double team maneuver to earn the emotional victory. The New Day embraced at the center of the ring and basked in their impeccable history on the blue brand.

Watch SmackDown Free Online

Lars Sullivan def. Jeff Hardy

Lars Sullivan bulldozed his way back into WWE action with a brutal beatdown of Jeff Hardy, Matt Riddle and The Miz last week. The Freak returned to the squared circle against The Charismatic Enigma and immediately came out charging. An injured knee grounded the high-flying Superstar, but Hardy nearly grinded out another win with a Twist of Fate. Sullivan was triumphant in his return though after a Freak Accident put Hardy away.

 

Watch SmackDown Free Online

Complete name : WWE.Friday.Night.SmackDown.16th.Oct.2020.WEBRip.h264-TJ.mp4
Format : MPEG-4
Format profile : Base Media
Codec ID : mp42
File size : 929 MiB
Duration : 1 h 27 min
Overall bit rate mode : Variable
Overall bit rate : 1 478 kb/s

Watch SmackDown Free Online

Video
ID : 1
Format : AVC
Duration : 1 h 27 min
Bit rate : 1 400 kb/s
Width : 720 pixels
Height : 406 pixels
Display aspect ratio : 16:9
Original aspect rat : 16:9
Frame rate mode : Variable
Frame rate : 59.940 FPS
Color space : YUV
Chroma : 4:2:0
Bit depth : 8 bits
Scan type : Progressive
Bits/(Pixel*Frame) : 0.080
Stream size : 878 MiB (94%)
Color range : Limited
Color primaries : BT.709
Transfer characteristics : BT.709
Matrix coefficients : BT.709
Codec configuration box : avcC

Watch SmackDown Free Online

Audio
ID : 2
Format : AAC LC
Format/Info : Advanced Audio
Codec ID : mp4a-40-2
Duration : 1 h 27 min
Bit rate mode : Constant
Bit rate : 64.4 kb/s
Channel(s) : 2 channels
Channel layout : L R
Sampling rate : 48.0 kHz
Frame rate : 46.875 FPS (1024 SPF)
Compression mode : Lossy
Stream size : 40.5 MiB (4%)
Title : Stereo
Default : Yes
Alternate group : 1

Watch SmackDown Free Online

Text
ID : 3
Format : Timed Text
Muxing mode : sbtl
Codec ID : tx3g
Duration : 1 h 27 min
Bit rate mode : Variable
Bit rate : 172 b/s
Stream size : 111 KiB (0%)
Default : Yes
Forced : No
Alternate group : 3

 

 

 

Watch SmackDown Free Online 2020 10 16 WWE Full Show

 

Watch online

 

Server 1

 

 

 

 

Watch SmackDown Free Online

 

 

 

 

Server-2

 

 

 

watch now

 

 

 

 

Server-3

 

 

 

Watch SmackDown Free Online

 

 

 

 

Uploaded By Site DX-TV.com

 

 

 

 

Download Free Links with normal and high Speed [ more 14 hosts ]  

 

 

 

 

http://shrt10.com/th2N8qQ
http://shrt10.com/kFGVI

 

 

 

Download Links with premium High Speed   

 

 

dropapk.to

 

 

 

nitroflare.com

 

 

 

rapidgator.net

 

 

 

uploaded.net

 

 

 

uploadgig.com

 

 

 

 

 

dx-tv.com

 

urlfree.net

Leave a Reply

Your email address will not be published. Required fields are marked *

This site uses Akismet to reduce spam. Learn how your comment data is processed.