Watch SmackDown 2020 10 09 WWE Full Show Online

Watch WWE SmackDown 2020 10 09 HDTV NWCHD DX-TV

 

WWE SmackDown 2020 10 09

 

 wwe SmackDown 2020 10 09

 

Watch SmackDown 2020 10 09 WWE Full Show Online

 

 

Complete name : WWE.Friday.Night.SmackDown.2020.10.09.HDTV.x264-NWCHD.mp4
Format : MPEG-4
Format profile : Base Media
Codec ID : isom
File size : 963 MiB
Duration : 1 h 24 min
Overall bit rate : 1 596 kb/s
Writing application : Lavf58 

WWE SmackDown 2020 10 09

Video
ID : 1
Format : AVC
Duration : 1 h 24 min
Bit rate : 1 400 kb/s
Width : 704 pixels
Height : 400 pixels
Display aspect ratio : 16:9
aspect rat : 16:9
Frame rate mode : Variable
Frame rate : 29.970 FPS
Color space : YUV
Chroma subsampling : 4:2:0
Bit depth : 8 bits
Scan type : Progressive
Bits/(Pixel*Frame) : 0.166
Stream size : 842 MiB (87%)
Color primaries : BT.709
Transfer characteristics : BT.709
Matrix coefficients : BT.709
Codec configuration box : avcC

WWE SmackDown 2020 10 09

Audio
ID : 2
Format : AAC LC
Format/Info : Advanced Audio
Codec ID : mp4a-40-2
Duration : 1 h 24 min
Bit rate mode : Constant
Bit rate : 192 kb/s
Channel(s) : 2 channels
Channel layout : L R
Sampling rate : 48.0 kHz
Frame rate : 46.875 FPS
Compression mode : Lossy
Stream size : 116 MiB (12%)
Title : Stereo
Language : English
Default : Yes
Alternate group : 1

WWE SmackDown 2020 10 09

Big E to face Sheamus in Falls Count Anywhere Match

 

Big E and Sheamus are set for a punishing Falls Count Anywhere Match on Friday Night SmackDown.

The New Day member has been chasing a fight with The Celtic Warrior anywhere he can find it after Sheamus’ heinous parking lot attack. Big E attempted to return the favor in the WWE ThunderDome loading area, but Sheamus escaped by throwing a security guard into the fire. Big E emerged victorious in the pair’s in-ring encounter at WWE Payback, but now the fight will sprawl throughout the arena.

WWE SmackDown 2020 10 09

Will Big E keep his singles run rolling in a grueling showdown with Sheamus?

Catch the brutal Falls Count Anywhere Match on Friday Night SmackDown at 8/7 C on FOX.

 

Watch SmackDown 2020 10 09 WWE Full Show Online

 

 

 

 

Watch online

 

 

 

 

 

Server 1

 

 

 

 

WWE SmackDown 2020 10 09

 

WWE SmackDown 2020 10 09

 

 

Server-2

 

 

 

watch now

 

 

 

 

Server-3

 

 

 

watch now

 

 

 

 

Uploaded By Site DX-TV.com

 

 

 

 

Download Free Links with normal and high Speed [ more 14 hosts ]  

 

WWE SmackDown 2020 10 09

 

 

http://shrt10.com/7JPYQQQpe
http://shrt10.com/NcR8ipa6E
http://shrt10.com/JMD2Gtibx
http://shrt10.com/jVnkiEcs
http://shrt10.com/xiCfHf
http://shrt10.com/LXHW1
http://shrt10.com/gclRN1CTx
http://shrt10.com/gxO3e
http://shrt10.com/f84vcghC
http://shrt10.com/NBeBwPP5
http://shrt10.com/kcici
http://shrt10.com/cWPrL
http://shrt10.com/iUSOH935r

 

 

 

Download Links with premium High Speed   

 

 

 

 

 

nitroflare.com

 

 

 

rapidgator.net

 

 

 

uploaded.net

 

 

 

uploadgig.com

 

 

 

 

 

dx-tv.com

 

urlfree.net

Leave a Reply

Your email address will not be published. Required fields are marked *

This site uses Akismet to reduce spam. Learn how your comment data is processed.