Watch SmackDown 13 November 2020 WWE Free Online

WWE SmackDown 13 November 2020 HDTV Star DX-TV

 

WWE SmackDown 13 November

WWE SmackDown 13 November


 


 

Watch SmackDown 13 November 2020 WWE Free Online

 

Complete name : WWE.Friday.Night.SmackDown.2020.11.13.HDTV.x264-Star.mp4
Format : MPEG-4
Format profile : Base Media
Codec ID : mp42
File size : 917 MiB
Duration : 1 h 27 min
Overall bit rate : 1 468 kb/s

WWE SmackDown 13 November

Video
ID : 1
Format : AVC
Duration : 1 h 27 min
Bit rate : 1 300 kb/s
Width : 720 pixels
Height : 480 pixels
Display aspect ratio : 16:9
aspect rat : 16:9
Frame rate mode : Constant
Frame rate : 29.970 FPS
Standard : NTSC
Color space : YUV
Chroma sampling : 4:2:0
Bit depth : 8 bits
Scan type : Progressive
Bits/(Pixel*Frame) : 0.126
Stream size : 812 MiB (89%)
Color range : Limited
Color primaries : BT.601 NTSC
Transfer characteristics : BT.709
Matrix coefficients : BT.601
Codec configuration box : avc

WWE SmackDown 13 November

Audio
ID : 2
Format : AAC LC
Format/Info : Advanced Audio
Codec ID : mp4a-40-2
Duration : 1 h 27 min
Bit rate mode : Constant
Bit rate : 159 kb/s
Channel(s) : 2 channels
Channel layout : L R
Sampling rate : 48.0 kHz
Frame rate : 46.875 FPS (1024 SPF)
Compression mode : Lossy
Stream size : 99.5 MiB (11%)
Title : Stereo
Default : Yes
Alternate group : 1

WWE SmackDown 13 November

The Final Chapter of Rey Mysterio’s rivalry with Seth Rollins to take place tonight

Rey Mysterio and Seth Rollins have both agreed the make a matchup between them tonight the final chapter in their highly personal rivalry.

Since traveling to the blue brand in the 2020 WWE Draft, The SmackDown Savior .

has continued to instigate the family turmoil centered around the relationship between Rey’s daughter Aalyah and Murphy.

But after Rollins’ lost disciple Murphy seemingly realigned with The Architect by helping him defeat Otis last week.

what role might Murphy and the Mysterio family play in their showdown? WWE SmackDown 13November 2020

Don’t miss ​​​​​​The Final Chapter of Rey Mysterio’s volatile rivalry with Seth Rollins, tonight at 8/7 C on SmackDown on FOX

 

Watch SmackDown 13 November 2020 WWE Free Online

 

Watch online

 

 

Server 1

 

 

 

 

 

 

 

WWE SmackDown 13 November

Server-2

 

 

 

 

 

 

 

 

 

Uploaded By Site DX-TV.com

 

 

 

 

Download Free Links with normal and high Speed [ more 14 hosts ]  

 

[su_expand more_text=”Show Hosts Info” less_text=”Close all Info” height=”30″ text_color=”#000000″ link_color=”#e25f8b” link_style=”button” more_icon=”icon: arrow-down” less_icon=”icon: arrow-up”]

 

 SmackDown 13 November

hexupload.net – clicknupload.co – www.multiup.org

– uptobox.com – anonfiles.com – userscloud.com –

 

 

[/su_expand]

 

 

 

http://shrt10.com/NR2PQR
http://shrt10.com/eZWa7
http://shrt10.com/dkhNQH8
http://shrt10.com/O22HilL
http://shrt10.com/RYqJtx982
http://shrt10.com/AUBEET8
http://shrt10.com/xYcojB94
http://shrt10.com/vTiIgp5Be

 

 

 

Download Links with premium High Speed   

 

 

 

 

dropapk.to

 

 

 

nitroflare.com

 

 

 

rapidgator.net

 

 

 

uploaded.net

 

 

 

uploadgig.com

 

 

 

 

 

dx-tv.com

 

urlfree.net

You May Also Like