Watch shoot interview Hitting the Highspots The Rascalz 2019 full show free mp4

 

 

 

 


 

 

 

dx-tv.com

 

 

 

 

 
Complete name : Hitting the Highspots – The Rascalz.mp4
Format : MPEG-4
Format profile : Base Media
Codec ID : isom (isom/iso2/avc1/mp41)
File size : 1.27 GiB
Duration : 1 h 23 min
Overall bit rate mode : Variable
Overall bit rate : 2 170 kb/s
Writing application : Lavf56.19.101

Video
ID : 1
Format : AVC
Format/Info : Advanced Video Codec
Format settings, Reference : 3 frames
Codec ID : avc1
Codec ID/Info : Advanced Video Coding
Duration : 1 h 23 min
Bit rate : 2 033 kb/s
Width : 1 280 pixels
Height : 720 pixels
Display aspect ratio : 16:9
Frame rate mode : Variable
Frame rate : 29.970 FPS
Minimum frame rate : 29.960 FPS
Maximum frame rate : 90 000.000 FPS
Color space : YUV
Chroma subsampling : 4:2:0
Bit depth : 8 bits
Scan type : Progressive
Bits/(Pixel*Frame) : 0.074
Stream size : 1.19 GiB (94%)
Codec configuration box : avcC

Audio
ID : 2
Format : AAC LC
Format/Info : Advanced Audio Codec Low Complexity
Codec ID : mp4a-40-2
Duration : 1 h 23 min
Bit rate mode : Variable
Bit rate : 128 kb/s
Maximum bit rate : 135 kb/s
Channel(s) : 2 channels
Channel layout : L R
Sampling rate : 48.0 kHz
Frame rate : 46.875 FPS (1024 SPF)
Compression mode : Lossy
Stream size : 76.5 MiB (6%)
Default : Yes
Alternate group : 1

 

 

 

 

 


 

 

 

Watch shoot interview Hitting the Highspots The Rascalz 2019 full show free mp4

 

 

 

 

Watch online

 

 

Waiting finish converting video

 

 

Server 1

 

 

 

 


 

 

 

 


 

 


 

 

 

Uploaded By Site DX-TV.com

 

 

 

open rar file to see this password

 

 

 

 

The password : DX-TV.com

 

 

 

 

Uploaded.net + rapidgator.net + katfile.com + bitster.cz

 

 

 

 


 

 

https://shrt10.com/FD2N
 

 

https://shrt10.com/rNMK
 

 
https://shrt10.com/kRbUETL
 

 
https://shrt10.com/o0PCWNR
 

 
https://shrt10.com/dXA8

 

 

 

 

Watch shoot interview Hitting the Highspots The Rascalz 2019 full show free mp4