Watch RPW 2019 05 5 Live At The Cockpit 41 720p WEB iNDYHEEL full show free online

 

 

 

 


 

 

 

dx-tv.com

 

 

 

 

Complete name : RPW.2019.05.05.Live.At.The.Cockpit.41.720p.WEB.h264-iNDYHEEL.mp4
Format : MPEG-4
Format profile : Base Media
Codec ID : isom (isom/iso2/avc1/mp41)
File size : 2.15 GiB
Duration : 2 h 15 min
Overall bit rate : 2 261 kb/s
Writing application : Lavf58.26.101

Video
ID : 1
Format : AVC
Format/Info : Advanced Video Codec
Format settings, GOP : M=4, N=125
Codec ID : avc1
Codec ID/Info : Advanced Video Coding
Duration : 2 h 15 min
Bit rate : 2 127 kb/s
Width : 1 280 pixels
Height : 720 pixels
Display aspect ratio : 16:9
Frame rate mode : Variable
Frame rate : 25.000 FPS
Color space : YUV
Chroma subsampling : 4:2:0
Bit depth : 8 bits
Scan type : Progressive
Bits/(Pixel*Frame) : 0.092
Stream size : 2.02 GiB (94%)
Codec configuration box : avcC

Audio
ID : 2
Format : AAC LC
Format/Info : Advanced Audio Codec Low Complexity
Codec ID : mp4a-40-2
Duration : 2 h 15 min
Bit rate mode : Constant
Bit rate : 128 kb/s
Channel(s) : 2 channels
Channel layout : L R
Sampling rate : 48.0 kHz
Frame rate : 46.875 FPS (1024 SPF)
Compression mode : Lossy
Stream size : 124 MiB (6%)
Default : Yes
Alternate group : 1

 

 

 

 

 


 

 

 

Watch RPW 2019 05 5 Live At The Cockpit 41 720p WEB iNDYHEEL full show free online

 

 

 

 

Watch online

 

 

Waiting finish converting video

 

 

Server 1

 

 

 

 

 

 

 

 

 

 

 

 

 

 

 

 

Server 2

 

 

 

 

 

 

 

 

 

 

 

 

 


 

 


 

 

 

Uploaded By Site DX-TV.com

 

 

 

open rar file to see this password

 

 

 

 

The password : DX-TV.com

 

 

 

 

Uploaded.net + rapidgator.net + katfile.com + bitster.cz

 

 

 

 


 

 

 

 
https://shrt10.com/pTcBvlT
 

 
https://shrt10.com/i0u7A
 

 
https://shrt10.com/fDtIlH2Q

 

 
https://shrt10.com/uUkvlT4
 

 

 

 

 

 

 

 

Watch RPW 2019 05 5 Live At The Cockpit 41 720p WEB iNDYHEEL full show free online