Watch RPW 2019 04 28 Live In Bristol 2 720p WEB iNDYHEEL free full show online

 

 

 

 


 

 

 

dx-tv.com

 

 

 

 

 

Complete name : RPW.2019.04.28.Live.In.Bristol.2.720p.WEB.h264-iNDYHEEL.mp4
Format : MPEG-4
Format profile : Base Media
Codec ID : isom (isom/iso2/avc1/mp41)
File size : 2.33 GiB
Duration : 2 h 28 min
Overall bit rate mode : Variable
Overall bit rate : 2 255 kb/s
Writing application : Lavf58.26.101

Video
ID : 1
Format : AVC
Format/Info : Advanced Video Codec
Codec ID : avc1
Codec ID/Info : Advanced Video Coding
Duration : 2 h 28 min
Bit rate : 2 121 kb/s
Width : 1 280 pixels
Height : 720 pixels
Display aspect ratio : 16:9
Frame rate mode : Variable
Frame rate : 25.000 FPS
Color space : YUV
Chroma subsampling : 4:2:0
Bit depth : 8 bits
Scan type : Progressive
Bits/(Pixel*Frame) : 0.092
Stream size : 2.19 GiB (94%)
Codec configuration box : avcC

Audio
ID : 2
Format : AAC LC
Format/Info : Advanced Audio
Codec ID : mp4a-40-2
Duration : 2 h 28 min
Bit rate mode : Variable
Bit rate : 128 kb/s
Maximum bit rate : 131 kb/s
Channel(s) : 2 channels
Channel layout : L R
Sampling rate : 48.0 kHz
Frame rate : 46.875 FPS (1024 SPF)
Compression mode : Lossy
Stream size : 135 MiB (6%)
Default : Yes
Alternate group : 1

 

 

 

 

 


 

 

 

Watch RPW 2019 04 28 Live In Bristol 2 720p WEB iNDYHEEL free full show online

 

 

 

 

Watch online

 

 

Waiting finish converting video

 

 

Server 1

 

 

 

 


 

 

 

 

 

 

 


 

 

Server 2

 

 

 

 

 


 

 

 

 


 

 

 

Uploaded By Site DX-TV.com

 

 

 

open rar file to see this password

 

 

 

 

The password : DX-TV.com

 

 

 


 

 

 

 

https://shrt10.com/D35aA
 

 
https://shrt10.com/olCDeK
 

 
https://shrt10.com/OBEBEE02
 

 
https://shrt10.com/iIfjg5

 

 

 

 

 

Watch RPW 2019 04 28 Live In Bristol 2 720p WEB iNDYHEEL free full show online